<?xml version="1.0" standalone="no"?>
<!DOCTYPE svg PUBLIC "-//W3C//DTD SVG 1.1//EN" "http://www.w3.org/Graphics/SVG/1.1/DTD/svg11.dtd" >
<!--
2018-5-14: Created with FontForge (http://fontforge.org)
-->
<svg xmlns="http://www.w3.org/2000/svg" xmlns:xlink="http://www.w3.org/1999/xlink" version="1.1">
<metadata>
Created by FontForge 20180321 at Mon May 14 13:46:44 2018
 By Kevin Ports
Copyright (c) 2018, Kevin Ports
</metadata>
<defs>
<font id="Ionicons" horiz-adv-x="416" >
  <font-face 
    font-family="Ionicons"
    font-weight="400"
    font-stretch="normal"
    units-per-em="512"
    panose-1="2 0 5 3 0 0 0 0 0 0"
    ascent="448"
    descent="-64"
    bbox="-0.75 -64 512.487 448"
    underline-thickness="25.6"
    underline-position="-51.2"
    unicode-range="U+F100-F4CD"
  />
    <missing-glyph />
    <glyph glyph-name="ion-ios-add-circle-outline" unicode="&#xf100;" 
d="M298 208c9 0 16 -7 16 -16s-7 -16 -16 -16h-74v-74c0 -9 -7 -16 -16 -16s-16 6 -16 16v74h-74s-16 6 -16 16s7 16 16 16h74v74c0 9 7 16 16 16s16 -7 16 -16v-74h74zM208 372c-48 0 -93 -19 -127 -53s-53 -79 -53 -127s19 -93 53 -127s79 -53 127 -53s93 19 127 53
s53 79 53 127s-19 93 -53 127s-79 53 -127 53zM208 400v0c115 0 208 -93 208 -208s-93 -208 -208 -208s-208 93 -208 208s93 208 208 208z" />
    <glyph glyph-name="ion-ios-add-circle" unicode="&#xf101;" 
d="M208 400c115 0 208 -93 208 -208s-93 -208 -208 -208s-208 93 -208 208s93 208 208 208zM298 176c9 0 16 7 16 16s-7 16 -16 16h-74v74c0 9 -7 16 -16 16s-16 -7 -16 -16v-74h-74c-9 0 -16 -7 -16 -16c0 -4 1 -8 4 -11s8 -5 12 -5h74v-74c0 -4 2 -9 5 -12s7 -4 11 -4
c9 0 16 7 16 16v74h74z" />
    <glyph glyph-name="ion-ios-add" unicode="&#xf102;" horiz-adv-x="257" 
d="M241 208c9 0 16 -7 16 -16s-7 -16 -16 -16h-97v-96c0 -9 -7 -16 -16 -16c-4 0 -8 1 -11 4s-5 8 -5 12v96h-96c-4 0 -8 2 -11 5s-5 7 -5 11c0 9 7 16 16 16h96v96c0 9 7 16 16 16s16 -7 16 -16v-96h97z" />
    <glyph glyph-name="ion-ios-airplane" unicode="&#xf137;" horiz-adv-x="448" 
d="M376 224c44 0 72 -14 72 -32s-28 -32 -72 -32h-18l-65 2c-1 0 -2 0 -2 -1l-97 -146c-3 -5 -8 -7 -14 -7h-23c-6 0 -8 6 -6 11l50 143c0 1 -1 2 -2 2l-121 3c-2 0 -5 -1 -7 -3l-38 -46c-3 -4 -7 -6 -12 -6h-17c-3 0 -5 3 -4 6l20 68c2 4 2 8 0 12l-20 69c-1 3 1 5 4 5h17
c5 0 9 -2 12 -6l37 -45c2 -2 4 -3 7 -3l122 2c1 0 2 1 2 2l-50 143c-2 5 0 11 6 11h23c5 0 11 -2 14 -7l97 -146c0 -1 1 -1 2 -1l65 2h18z" />
    <glyph glyph-name="ion-ios-alarm" unicode="&#xf3c8;" horiz-adv-x="384" 
d="M317 384c38 -2 67 -33 67 -69c0 -18 -7 -26 -16 -37c-1 -1 -3 -2 -5 -2h-1c-2 0 -3 1 -4 2l-90 80c-2 1 -2 4 -2 6s0 4 2 5c13 10 29 15 45 15v0h4zM0 315c0 36 29 67 67 69h4v0c16 0 32 -5 45 -15c2 -1 2 -3 2 -5s0 -5 -2 -6l-90 -80c-1 -1 -2 -2 -4 -2h-1
c-2 0 -4 1 -5 2c-9 11 -16 19 -16 37zM326 62l35 -36c6 -6 5 -15 -1 -21c-3 -3 -8 -5 -12 -5s-8 2 -11 5l-34 35c-30 -25 -69 -40 -111 -40s-81 15 -111 40l-35 -35c-3 -3 -7 -5 -11 -5s-8 2 -11 5c-6 6 -7 15 -1 21l35 36c-26 31 -42 70 -42 114c0 97 79 176 176 176
s176 -79 176 -176c0 -44 -16 -83 -42 -114zM206 174v116c0 8 -6 14 -14 14s-14 -6 -14 -14v-102h-68c-8 0 -14 -6 -14 -14s6 -14 14 -14h82c8 0 14 6 14 14z" />
    <glyph glyph-name="ion-ios-albums" unicode="&#xf3ca;" horiz-adv-x="480" 
d="M445 287c19 0 35 -16 35 -35v-232c0 -19 -16 -35 -35 -35h-410c-19 0 -35 16 -35 35v232c0 19 16 35 35 35h410zM418 315h-356c-8 0 -14 6 -14 14v0c0 8 6 14 14 14h356c8 0 14 -6 14 -14v0c0 -8 -6 -14 -14 -14zM387 371h-294c-7 0 -13 6 -13 13v2c0 7 6 13 13 13h294
c7 0 13 -6 13 -13v-2c0 -7 -6 -13 -13 -13z" />
    <glyph glyph-name="ion-ios-alert" unicode="&#xf104;" 
d="M208 400c115 0 208 -93 208 -208s-93 -208 -208 -208s-208 93 -208 208s93 208 208 208zM225 290c0 10 -7 18 -17 18v0c-10 0 -17 -8 -17 -18l3 -115c0 -8 6 -15 14 -15v0c8 0 14 7 14 15zM208 94c11 0 19 8 19 18s-8 19 -19 19s-19 -9 -19 -19s8 -18 19 -18z" />
    <glyph glyph-name="ion-ios-american-football" unicode="&#xf106;" 
d="M331 315c40 -40 62 -96 73 -148l-171 -171c-52 11 -108 33 -148 73s-62 95 -73 148l171 171c52 -11 108 -33 148 -73zM296 160c5 5 5 13 1 18c-3 3 -7 4 -11 4c-3 0 -6 -2 -8 -4l-19 -19l-16 16l20 19c3 3 5 8 3 13c0 1 -1 1 -1 2c-3 5 -7 8 -13 7c-3 0 -6 -2 -8 -4
l-19 -19l-16 16l20 19c3 3 5 8 3 13c-1 2 -1 5 -3 6v0c-3 3 -8 4 -12 3c-3 0 -5 -2 -7 -4l-19 -19l-16 16l20 19c3 3 5 8 3 13c0 1 -1 1 -1 2c-3 5 -7 8 -13 7c-3 0 -6 -2 -8 -4l-19 -19l-15 15c-5 5 -13 5 -18 0v0c-5 -5 -5 -13 0 -18l15 -15l-19 -19c-3 -3 -6 -8 -4 -13
c0 -1 1 -1 1 -2c3 -5 8 -8 14 -7c3 0 5 2 7 4l20 19l15 -16l-19 -19c-3 -3 -6 -8 -4 -13c0 -1 1 -1 1 -2c3 -5 8 -8 14 -7c3 0 5 2 7 4l19 19l16 -16l-20 -19c-3 -3 -5 -8 -3 -13c0 -1 1 -1 1 -2c3 -5 7 -8 13 -7c3 0 6 2 8 4l19 19l16 -16l-20 -19c-3 -3 -4 -8 -3 -13
c1 -2 1 -3 3 -5v0c3 -3 8 -5 12 -4c3 0 5 2 7 4l19 19l15 -15c5 -5 13 -5 18 0v0c5 5 5 13 0 18l-15 15zM347 -16c-24 0 -54 1 -85 6l148 148c10 -66 5 -125 3 -144c0 -4 -3 -7 -7 -7c-10 -1 -31 -3 -59 -3zM69 400c24 0 54 -1 85 -6l-148 -148c-10 66 -5 125 -3 144
c0 4 3 7 7 7c10 1 31 3 59 3z" />
    <glyph glyph-name="ion-ios-analytics" unicode="&#xf3ce;" 
d="M208 400c115 0 208 -93 208 -208s-93 -208 -208 -208s-208 93 -208 208s93 208 208 208zM28 192c0 -12 1 -23 3 -34c6 -5 20 -16 37 -13c12 2 28 25 38 41c4 6 8 12 11 16c17 21 34 23 45 21c24 -3 43 -27 52 -49c7 -18 20 -28 33 -29c15 -1 31 10 42 29c1 2 3 5 4 7
c9 17 23 43 51 43c20 0 35 -14 44 -24c-2 45 -21 87 -53 119c-34 34 -79 53 -127 53s-93 -19 -127 -53s-53 -79 -53 -127z" />
    <glyph glyph-name="ion-ios-aperture" unicode="&#xf108;" 
d="M202 77h179c-25 -37 -61 -66 -103 -81l-22 22l-55 55c-1 1 -1 4 1 4zM119 113c0 2 2 3 3 2l127 -127c-13 -3 -27 -4 -41 -4c-32 0 -62 7 -89 20v109zM208 400c32 0 63 -7 90 -20v-109c0 -2 -3 -3 -4 -2l-126 127c13 3 26 4 40 4zM20 281h110c2 0 2 -2 1 -3l-127 -127
c-3 13 -4 27 -4 41c0 32 7 62 20 89zM139 388l77 -77c1 -1 1 -4 -1 -4h-180c25 37 61 66 104 81zM119 227c0 1 0 2 1 3l50 50c1 1 2 1 3 1h71c1 0 1 0 2 -1l50 -50c1 -1 2 -2 2 -3v-70c0 -1 -1 -2 -2 -3l-50 -50c-1 -1 -1 -1 -2 -1h-71c-1 0 -2 0 -3 1l-50 50
c-1 1 -1 2 -1 3v70zM412 232c3 -13 4 -26 4 -40c0 -32 -7 -62 -20 -89h-109c-2 0 -2 2 -1 3zM324 365c37 -25 65 -61 80 -104l-77 -77c-1 -1 -3 0 -3 2v179zM12 122l78 78c1 1 3 0 3 -2v-179c-37 25 -66 60 -81 103z" />
    <glyph glyph-name="ion-ios-apps" unicode="&#xf10a;" horiz-adv-x="384" 
d="M371 310c18 -8 18 -21 0 -29l-148 -67c-17 -8 -45 -8 -62 0l-148 67c-18 8 -18 21 0 29l150 68c16 7 43 7 59 0zM161 73c17 -8 45 -8 62 0l100 45c4 2 9 2 13 0l35 -16c18 -8 18 -21 0 -29l-148 -67c-17 -8 -45 -8 -62 0l-148 67c-18 8 -18 21 0 29l35 16c4 2 10 2 14 0z
M371 206c18 -8 18 -21 0 -29l-148 -67c-17 -8 -45 -8 -62 0l-148 67c-18 8 -18 21 0 29l32 15c4 2 9 2 13 0l108 -49c15 -5 37 -5 52 0l108 49c4 2 9 2 13 0z" />
    <glyph glyph-name="ion-ios-appstore" unicode="&#xf10c;" 
d="M208 400c115 0 208 -93 208 -208s-93 -208 -208 -208s-208 93 -208 208s93 208 208 208zM129 103l18 30c-2 6 -10 12 -20 12h-2c-3 0 -5 -2 -7 -4l-14 -23c-4 -7 -2 -16 5 -20c2 -1 6 -2 8 -2c5 0 9 2 12 7zM249 150c0 0 1 1 1 4c0 5 -1 9 -4 14l-1 1c-3 6 -11 9 -18 9
h-54v0l37 62l16 28l18 30c4 7 2 16 -5 20s-16 2 -20 -5l-9 -16v0l-10 16c-4 7 -13 9 -20 5s-8 -13 -4 -20l17 -30v0l-53 -90v0h-45c-8 0 -15 -6 -15 -14s6 -15 14 -15h29h33zM322 149c8 0 14 7 14 15s-7 14 -15 14h-41v0l-49 82s-4 -1 -8 -9c-6 -11 -5 -25 1 -36l22 -37
l17 -29l27 -46c3 -4 7 -7 12 -7c3 0 6 1 8 2c7 4 9 13 5 20l-19 31v0h26z" />
    <glyph glyph-name="ion-ios-archive" unicode="&#xf10e;" 
d="M412 328h-408c-2 0 -4 2 -4 4v20c0 18 14 32 32 32h352c18 0 32 -14 32 -32v-20c0 -2 -2 -4 -4 -4zM392 302c4 0 8 -4 8 -8v-262c0 -18 -14 -32 -32 -32h-320c-18 0 -32 14 -32 32v262c0 4 4 8 8 8h368zM258 160c8 0 15 8 14 16c-1 7 -7 12 -14 12h-100
c-8 0 -15 -8 -14 -16c1 -7 7 -12 14 -12h100z" />
    <glyph glyph-name="ion-ios-arrow-back" unicode="&#xf3cf;" horiz-adv-x="192" 
d="M58 192l127 -127c9 -9 9 -25 0 -34c-5 -5 -11 -7 -17 -7s-12 2 -17 7l-145 145c-9 9 -8 24 1 33l144 144c9 9 25 9 34 0s9 -25 0 -34z" />
    <glyph glyph-name="ion-ios-arrow-down" unicode="&#xf3d0;" horiz-adv-x="336" 
d="M168 154l127 127c9 9 25 9 34 0s9 -25 0 -34l-144 -144c-9 -9 -24 -10 -33 -1l-145 145c-5 5 -7 11 -7 17s2 12 7 17c9 9 25 9 34 0z" />
    <glyph glyph-name="ion-ios-arrow-dropdown-circle" unicode="&#xf125;" 
d="M0 192c0 115 93 208 208 208s208 -93 208 -208s-93 -208 -208 -208s-208 93 -208 208zM289 235l-81 -79l-81 81c-8 8 -19 8 -27 0s-8 -19 0 -27l95 -95c7 -7 19 -8 27 -1l94 94c4 4 6 9 6 14s-2 9 -6 13c-8 8 -19 8 -27 0z" />
    <glyph glyph-name="ion-ios-arrow-dropdown" unicode="&#xf110;" 
d="M100 237c8 8 19 8 27 0l81 -81l81 79c8 8 19 8 27 0c4 -4 6 -8 6 -13s-2 -10 -6 -14l-94 -94c-8 -7 -20 -6 -27 1l-95 95c-8 8 -8 19 0 27zM0 192c0 115 93 208 208 208s208 -93 208 -208s-93 -208 -208 -208s-208 93 -208 208zM332 316c-33 33 -77 52 -124 52
s-91 -19 -124 -52s-52 -77 -52 -124s19 -91 52 -124s77 -52 124 -52s91 19 124 52s52 77 52 124s-19 91 -52 124z" />
    <glyph glyph-name="ion-ios-arrow-dropleft-circle" unicode="&#xf129;" 
d="M208 400c115 0 208 -93 208 -208s-93 -208 -208 -208s-208 93 -208 208s93 208 208 208zM251 111l-79 81l81 81c8 8 8 19 0 27s-19 8 -27 0l-95 -95c-7 -7 -8 -19 -1 -27l94 -94c4 -4 9 -6 14 -6s9 2 13 6c8 8 8 19 0 27z" />
    <glyph glyph-name="ion-ios-arrow-dropleft" unicode="&#xf112;" 
d="M253 300c8 -8 8 -19 0 -27l-81 -81l79 -81c8 -8 8 -19 0 -27c-4 -4 -8 -6 -13 -6s-10 2 -14 6l-94 94c-7 8 -6 20 1 27l95 95c8 8 19 8 27 0zM208 400c115 0 208 -93 208 -208s-93 -208 -208 -208s-208 93 -208 208s93 208 208 208zM332 68c33 33 52 77 52 124
s-19 91 -52 124s-77 52 -124 52s-91 -19 -124 -52s-52 -77 -52 -124s19 -91 52 -124s77 -52 124 -52s91 19 124 52z" />
    <glyph glyph-name="ion-ios-arrow-dropright-circle" unicode="&#xf12b;" 
d="M0 192c0 115 93 208 208 208s208 -93 208 -208s-93 -208 -208 -208s-208 93 -208 208zM244 192l-79 -81c-8 -8 -8 -19 0 -27c4 -4 8 -6 13 -6s10 2 14 6l94 94c7 8 6 20 -1 27l-95 95c-8 8 -19 8 -27 0s-8 -19 0 -27z" />
    <glyph glyph-name="ion-ios-arrow-dropright" unicode="&#xf114;" 
d="M163 300c8 8 19 8 27 0l95 -95c7 -7 8 -19 1 -27l-94 -94c-4 -4 -9 -6 -14 -6s-9 2 -13 6c-8 8 -8 19 0 27l80 81l-82 81c-8 7 -8 19 0 27zM0 192c0 115 93 208 208 208s208 -93 208 -208s-93 -208 -208 -208s-208 93 -208 208zM32 192c0 -47 19 -91 52 -124
s77 -52 124 -52s91 19 124 52s52 77 52 124s-19 91 -52 124s-77 52 -124 52s-91 -19 -124 -52s-52 -77 -52 -124z" />
    <glyph glyph-name="ion-ios-arrow-dropup-circle" unicode="&#xf12d;" 
d="M208 -16c-115 0 -208 93 -208 208s93 208 208 208s208 -93 208 -208s-93 -208 -208 -208zM208 228l81 -79c8 -8 19 -8 27 0c4 4 6 8 6 13s-2 10 -6 14l-94 94c-8 7 -20 6 -27 -1l-95 -95c-8 -8 -8 -19 0 -27s19 -8 27 0z" />
    <glyph glyph-name="ion-ios-arrow-dropup" unicode="&#xf116;" 
d="M100 147c-8 8 -8 19 0 27l95 95c7 7 19 8 27 1l94 -94c4 -4 6 -9 6 -14s-2 -9 -6 -13c-8 -8 -19 -8 -27 0l-81 79l-81 -81c-8 -8 -19 -8 -27 0zM208 -16c-115 0 -208 93 -208 208s93 208 208 208s208 -93 208 -208s-93 -208 -208 -208zM208 16c47 0 91 19 124 52
s52 77 52 124s-19 91 -52 124s-77 52 -124 52s-91 -19 -124 -52s-52 -77 -52 -124s19 -91 52 -124s77 -52 124 -52z" />
    <glyph glyph-name="ion-ios-arrow-forward" unicode="&#xf3d1;" horiz-adv-x="192" 
d="M134 192l-127 127c-9 9 -9 25 0 34s25 9 34 0l144 -144c9 -9 10 -24 1 -33l-145 -145c-5 -5 -11 -7 -17 -7s-12 2 -17 7c-9 9 -9 25 0 34z" />
    <glyph glyph-name="ion-ios-arrow-round-back" unicode="&#xf117;" horiz-adv-x="288" 
d="M104 284c5 -5 5 -13 0 -18l-60 -61h231c7 0 13 -6 13 -13s-6 -13 -13 -13h-231l60 -61c5 -5 5 -13 0 -18s-13 -5 -18 0l-82 83v0c-1 1 -2 2 -3 4s-1 3 -1 5c0 3 2 7 4 9l82 83c5 5 13 5 18 0z" />
    <glyph glyph-name="ion-ios-arrow-round-down" unicode="&#xf118;" horiz-adv-x="192" 
d="M188 152c5 -5 5 -13 0 -18l-83 -82c-2 -2 -6 -4 -9 -4c-2 0 -3 0 -5 1s-3 2 -4 3v0l-83 82c-5 5 -5 13 0 18s13 6 18 1l61 -61v231c0 7 6 13 13 13s13 -6 13 -13v-231l61 60c5 5 13 5 18 0z" />
    <glyph glyph-name="ion-ios-arrow-round-forward" unicode="&#xf119;" horiz-adv-x="288" 
d="M184 284c5 5 13 5 18 0l82 -83c2 -2 4 -6 4 -9c0 -2 0 -3 -1 -5s-2 -3 -3 -4v0l-82 -83c-5 -5 -13 -5 -18 0s-6 13 -1 18l61 61h-231c-7 0 -13 6 -13 13s6 13 13 13h231l-60 61c-5 5 -5 13 0 18z" />
    <glyph glyph-name="ion-ios-arrow-round-up" unicode="&#xf11a;" horiz-adv-x="192" 
d="M188 232c-5 -5 -13 -5 -18 0l-61 60v-231c0 -7 -6 -13 -13 -13s-13 6 -13 13v231l-61 -61c-5 -5 -13 -4 -18 1s-5 13 0 18l83 82v0c1 1 2 2 4 3s3 1 5 1c3 0 7 -2 9 -4l83 -82c5 -5 5 -13 0 -18z" />
    <glyph glyph-name="ion-ios-arrow-up" unicode="&#xf3d8;" horiz-adv-x="336" 
d="M168 230l-127 -127c-9 -9 -25 -9 -34 0c-5 5 -7 11 -7 17s2 12 7 17l145 145c9 9 24 8 33 -1l144 -144c9 -9 9 -25 0 -34s-25 -9 -34 0z" />
    <glyph glyph-name="ion-ios-at" unicode="&#xf3da;" horiz-adv-x="384" 
d="M384 214c0 -74 -35 -121 -90 -121c-28 0 -49 15 -53 37h-4c-10 -23 -30 -36 -57 -36c-49 0 -82 40 -82 98c0 56 33 94 81 94c25 0 46 -12 55 -32h4v28h39v-130c0 -16 9 -26 25 -26c28 0 46 34 46 86c0 83 -63 139 -155 139c-91 0 -156 -66 -156 -160
c0 -96 64 -158 164 -158c20 0 40 2 55 5c10 2 18 -6 18 -16v0c0 -7 -5 -13 -12 -15c-18 -4 -39 -7 -62 -7c-122 0 -200 75 -200 192c0 114 79 192 195 192c111 0 189 -69 189 -170zM141 191c0 -37 18 -60 46 -60c30 0 49 24 49 60s-20 59 -49 59s-46 -22 -46 -59z" />
    <glyph glyph-name="ion-ios-attach" unicode="&#xf11b;" horiz-adv-x="231" 
d="M216 287c9 0 15 -7 15 -16v-194c0 -14 -3 -28 -9 -42c-6 -13 -14 -25 -24 -35c-21 -20 -48 -32 -76 -32h-13c-28 0 -55 11 -76 32c-20 20 -33 49 -33 78v251c0 24 9 45 26 61s38 26 62 26s46 -10 62 -26c17 -16 26 -38 26 -61v-235c0 -18 -7 -33 -18 -44s-26 -18 -42 -18
c-34 0 -60 26 -60 62v134c0 9 7 16 16 16s15 -7 15 -16v-134c0 -19 15 -32 29 -32c15 0 29 15 29 32v235c0 15 -7 29 -17 39s-25 16 -40 16s-30 -6 -41 -16c-11 -11 -17 -24 -17 -39v-251c0 -20 9 -39 24 -55s35 -25 55 -25h13c20 0 42 9 56 24s22 35 22 55v194
c0 9 7 16 16 16z" />
    <glyph glyph-name="ion-ios-backspace" unicode="&#xf11d;" 
d="M347 352c38 0 69 -31 69 -69v-180c0 -38 -31 -71 -69 -71h-165c-45 0 -64 26 -102 64s-72 76 -72 76c-5 6 -8 13 -8 21s3 15 8 21c0 0 43 45 72 74s55 64 102 64h165zM329 139l-52 53l52 53c6 6 6 16 0 22s-16 6 -22 0l-53 -52l-53 52c-6 6 -15 7 -22 0s-6 -16 0 -22
s52 -53 52 -53s-45 -46 -52 -53s-6 -16 0 -22s16 -6 22 0l53 52l53 -52c6 -6 16 -6 22 0s6 16 0 22z" />
    <glyph glyph-name="ion-ios-barcode" unicode="&#xf3dc;" 
d="M74 60c4 0 7 -2 10 -5s4 -6 4 -10c0 -8 -7 -13 -15 -13h-56c-10 0 -17 6 -17 16v288c0 10 8 16 18 16h54c4 0 9 -1 12 -4s4 -6 4 -10c0 -8 -7 -14 -15 -14h-40c-2 0 -4 -2 -4 -4v-256c0 -2 2 -4 4 -4h41zM399 352c10 0 17 -6 17 -16v-288c0 -10 -7 -16 -17 -16h-57
c-4 0 -7 1 -10 4s-4 6 -4 10c0 8 7 14 15 14h40c2 0 4 2 4 4v256c0 2 -2 4 -4 4h-41c-5 0 -9 3 -12 8c0 1 -1 1 -1 2c-3 10 4 18 14 18h56zM74 272c8 0 14 -6 14 -14v-132c0 -8 -6 -14 -14 -14s-14 6 -14 14v132c0 8 6 14 14 14zM342 112c-8 0 -14 6 -14 14v132
c0 8 6 14 14 14s14 -6 14 -14v-132c0 -8 -6 -14 -14 -14zM278 304c8 0 14 -6 14 -14v-196c0 -8 -6 -14 -14 -14s-14 6 -14 14v196c0 8 6 14 14 14zM138 304c8 0 14 -6 14 -14v-196c0 -8 -6 -14 -14 -14s-14 6 -14 14v196c0 8 6 14 14 14zM208 288c8 0 14 -6 14 -14v-164
c0 -8 -6 -14 -14 -14s-14 6 -14 14v164c0 8 6 14 14 14z" />
    <glyph glyph-name="ion-ios-baseball" unicode="&#xf3de;" 
d="M208 374c-2 -1 -5 1 -5 3c-1 8 -2 15 -3 23h8c115 0 208 -93 208 -208v-8v0c-7 1 -15 2 -22 3c-2 0 -4 3 -3 5l3 9c2 5 -1 9 -6 11v0c-5 2 -9 0 -11 -5l-4 -11c-1 -2 -3 -4 -5 -3c-7 2 -15 5 -22 8c-4 2 -8 3 -12 5c-2 1 -3 4 -2 6l6 8c3 4 2 10 -2 13h-1
c-4 3 -9 1 -12 -3l-7 -10c-1 -2 -3 -2 -5 -1c-12 7 -23 16 -33 25c-2 2 -2 3 0 5l8 8c4 3 4 8 0 12l-1 1c-3 4 -8 4 -12 0l-8 -8c-2 -2 -4 -2 -6 0c-9 10 -16 21 -23 32c-1 2 -1 4 1 5l10 7c4 3 6 8 3 12v1c-3 4 -9 5 -13 2l-8 -6c-2 -1 -5 0 -6 2c-2 4 -4 9 -6 14
c-3 7 -5 13 -7 20c-1 2 0 4 2 5l12 4c5 2 7 6 5 11v0c-2 5 -6 8 -11 6zM210 1c1 -5 2 -12 2 -17v0h-4c-115 0 -208 93 -208 208v4v0c6 -1 12 -1 18 -2c2 0 4 -3 3 -5l-4 -13c-2 -5 1 -9 6 -11v0c5 -2 9 1 11 6l5 14c1 2 3 4 5 3c8 -2 15 -5 22 -8c4 -2 9 -4 13 -6
c2 -1 3 -4 2 -6l-8 -11c-3 -4 -1 -9 3 -12v-1c4 -3 9 -1 12 3l9 13c1 2 3 2 5 1c11 -7 22 -15 32 -24c2 -2 3 -3 1 -5l-10 -10c-4 -3 -4 -9 0 -13v0c3 -4 9 -4 13 0l9 10c2 2 4 1 6 -1c9 -10 18 -21 25 -33c1 -2 1 -4 -1 -5l-13 -9c-4 -3 -6 -8 -3 -12h1c3 -4 8 -6 12 -3
l11 8c2 1 5 0 6 -2c2 -4 3 -8 5 -12c3 -8 6 -15 8 -23c1 -2 -1 -4 -3 -5l-13 -4c-5 -2 -8 -7 -6 -12v0c2 -5 6 -8 11 -6l12 4c2 1 5 -1 5 -3zM383 167c1 2 3 3 5 3c9 -2 17 -3 26 -4c-12 -95 -88 -171 -184 -181v1c-1 7 -2 15 -3 22c0 2 1 3 3 4l16 5c5 2 7 6 5 11v1
c-2 5 -6 7 -11 5l-14 -4c-2 -1 -4 1 -5 3c-4 14 -9 27 -15 40c-1 2 -1 4 1 5l13 9c4 3 5 8 2 12v1c-3 4 -9 5 -13 2l-10 -7c-2 -1 -5 -1 -6 1c-8 12 -17 25 -27 36c-2 2 -2 3 0 5l10 11c4 3 4 8 0 12v0c-3 4 -9 4 -13 0l-10 -10c-2 -2 -3 -1 -5 0c-11 10 -23 18 -35 26
c-2 1 -2 4 -1 6l7 10c3 4 1 10 -3 13v0c-4 3 -9 1 -12 -3l-8 -12c-1 -2 -4 -2 -6 -1c-13 7 -26 12 -40 16c-2 1 -4 3 -3 5l4 13c2 5 0 9 -5 11h-1c-5 2 -9 -1 -11 -6l-5 -14c-1 -2 -2 -3 -4 -3c-7 1 -15 2 -23 3h-1c10 96 86 172 181 184c1 -9 2 -19 4 -28c0 -2 -1 -3 -3 -4
l-17 -6c-5 -2 -8 -6 -6 -11v0c2 -5 6 -8 11 -6l16 5c2 1 4 -1 5 -3c4 -14 10 -26 16 -39c1 -2 1 -5 -1 -6l-15 -10c-4 -3 -6 -8 -3 -12h1c3 -4 8 -6 12 -3l13 9c2 1 5 1 6 -1c8 -12 16 -23 26 -34c2 -2 2 -3 0 -5l-13 -13c-4 -3 -4 -9 0 -13v0c3 -4 9 -4 13 0l13 13
c2 2 3 1 5 0c11 -10 23 -19 35 -27c2 -1 2 -3 1 -5l-9 -14c-3 -4 -1 -9 3 -12v-1c4 -3 9 -1 12 3l11 15c1 2 3 3 5 2c13 -6 25 -12 39 -16c2 -1 4 -3 3 -5l-5 -17c-2 -5 1 -9 6 -11v0c5 -2 9 1 11 6z" />
    <glyph glyph-name="ion-ios-basket" unicode="&#xf11f;" horiz-adv-x="448" 
d="M356 74v76h67l-18 -76h-49zM356 0v55h45l-6 -25c-5 -17 -20 -30 -39 -30v0zM233 0v56h104v-56h-104zM43 74l-17 76h66v-76h-49zM111 168v88h104v-88h-104zM233 168v88h104v-88h-104zM54 30l-7 26h45v-56v0c-19 0 -33 13 -38 30zM111 0v56h104v-56h-104zM233 74v76h104
v-76h-104zM111 74v76h104v-76h-104zM432 256c10 0 18 -10 16 -20l-20 -68h-72v174c0 8 -6 14 -14 14h-236c-8 0 -14 -6 -14 -14v-174h-72l-20 68c-2 10 6 20 16 20h48v96c0 18 14 32 32 32h256c18 0 32 -14 32 -32v-96h48z" />
    <glyph glyph-name="ion-ios-basketball" unicode="&#xf3e0;" 
d="M171 142c-22 23 -48 42 -77 56s-60 22 -92 24c5 33 18 64 36 90c64 -28 122 -68 172 -118c3 -3 5 -6 8 -9l-6 -6c-13 -13 -27 -25 -41 -37zM278 262c-21 21 -37 46 -49 73c-9 21 -15 43 -17 65c45 -1 87 -16 121 -42c-15 -34 -32 -67 -53 -97c-1 0 -2 1 -2 1zM351 213
c-18 8 -36 19 -52 31c21 30 40 62 55 96c37 -37 61 -88 62 -144c-22 2 -44 8 -65 17zM146 130c1 -1 2 -3 4 -4c-33 -24 -68 -46 -105 -63c-28 35 -45 80 -45 129v4c25 -2 50 -7 73 -17c27 -12 52 -28 73 -49zM236 204c-26 27 -56 52 -86 74c-30 21 -62 40 -95 55
c33 36 79 61 131 66c6 -61 35 -117 79 -159c-9 -12 -19 -25 -29 -36zM253 185c11 12 21 24 31 37c38 -29 83 -47 131 -52c-5 -52 -30 -97 -66 -131c-24 53 -57 102 -96 146zM187 122c17 14 34 28 49 44c38 -43 69 -91 92 -144c-26 -18 -57 -31 -90 -36c-4 49 -21 96 -51 136
zM167 106c11 -15 21 -31 28 -49c10 -23 15 -48 17 -73h-4c-56 0 -107 23 -145 59c37 17 72 39 104 63z" />
    <glyph glyph-name="ion-ios-battery-charging" unicode="&#xf120;" horiz-adv-x="480" 
d="M380 304c26 0 48 -22 48 -48v-128c0 -26 -22 -48 -48 -48h-332c-26 0 -48 22 -48 48v128c0 26 22 48 48 48h332zM400 128v128c0 11 -9 20 -20 20h-332c-11 0 -20 -9 -20 -20v-128c0 -11 9 -20 20 -20h332c11 0 20 9 20 20zM448 243c16 0 32 -27 32 -51s-16 -51 -32 -51
v102zM368 256c7 0 12 -5 12 -12v-104c0 -7 -5 -12 -12 -12h-308c-7 0 -12 5 -12 12v104c0 7 5 12 12 12h308zM203 140l45 61h-27l8 43l-45 -61h27z" />
    <glyph glyph-name="ion-ios-battery-dead" unicode="&#xf121;" horiz-adv-x="480" 
d="M380 304c26 0 48 -22 48 -48v-128c0 -26 -22 -48 -48 -48h-332c-26 0 -48 22 -48 48v128c0 26 22 48 48 48h332zM400 128v128c0 11 -9 20 -20 20h-332c-11 0 -20 -9 -20 -20v-128c0 -11 9 -20 20 -20h332c11 0 20 9 20 20zM448 243c16 0 32 -27 32 -51s-16 -51 -32 -51
v102z" />
    <glyph glyph-name="ion-ios-battery-full" unicode="&#xf122;" horiz-adv-x="480" 
d="M380 304c26 0 48 -22 48 -48v-128c0 -26 -22 -48 -48 -48h-332c-26 0 -48 22 -48 48v128c0 26 22 48 48 48h332zM400 128v128c0 11 -9 20 -20 20h-332c-11 0 -20 -9 -20 -20v-128c0 -11 9 -20 20 -20h332c11 0 20 9 20 20zM448 243c16 0 32 -27 32 -51s-16 -51 -32 -51
v102zM368 256c7 0 12 -5 12 -12v-104c0 -7 -5 -12 -12 -12h-308c-7 0 -12 5 -12 12v104c0 7 5 12 12 12h308z" />
    <glyph glyph-name="ion-ios-beaker" unicode="&#xf124;" horiz-adv-x="384" 
d="M381 400c2 0 3 -1 3 -2s-2 -4 -3 -6s-12 -15 -14 -33v-310c0 -35 -28 -65 -63 -65h-208c-35 0 -64 29 -64 64v276c0 32 -2 32 -32 36c0 12 10 40 64 40h270h47zM48 371c12 -13 12 -29 12 -47v-36h279v0v71v3c0 3 1 6 2 10h-7h-270c-4 0 -10 0 -16 -1v0z" />
    <glyph glyph-name="ion-ios-bed" unicode="&#xf139;" horiz-adv-x="448" 
d="M426 240c12 0 22 -10 22 -22v-180c0 -12 -10 -22 -22 -22v0c-12 0 -22 10 -22 22v6c0 2 -2 4 -4 4h-352c-2 0 -4 -2 -4 -4v-6c0 -12 -10 -22 -22 -22v0c-12 0 -22 10 -22 22v180c0 12 10 22 22 22v0c12 0 22 -10 22 -22c0 -1 1 -2 2 -2h356c1 0 2 1 2 2c0 12 10 22 22 22
v0zM52 234c-4 0 -8 4 -8 8v94c0 18 14 32 32 32h296c18 0 32 -14 32 -32v-94c0 -4 -4 -8 -8 -8h-22c-2 0 -4 2 -4 4v13c0 9 -7 16 -16 16h-98c-9 0 -16 -7 -16 -16v-13c0 -2 -2 -4 -4 -4h-24c-2 0 -4 2 -4 4v13c0 9 -7 16 -16 16h-98c-9 0 -16 -7 -16 -16v-13
c0 -2 -2 -4 -4 -4h-22z" />
    <glyph glyph-name="ion-ios-beer" unicode="&#xf126;" horiz-adv-x="384" 
d="M48 286v-96h-26c-9 0 -17 8 -17 17c0 16 11 22 11 35v51c0 19 -16 12 -16 41v4c0 26 25 43 50 43c10 0 18 -1 23 -2c6 -1 12 1 16 6c9 10 22 17 36 17c9 0 19 -2 26 -7c6 -4 13 -2 17 3c10 11 23 18 44 18c24 0 47 -16 56 -39c2 -5 7 -9 13 -9h1c21 0 38 -17 38 -38v-22
c0 -2 -3 -4 -5 -2v0c-4 3 -8 4 -13 4h-230c-13 0 -24 -11 -24 -24zM322 -4c8 0 14 -6 14 -14s-6 -14 -14 -14h-276c-8 0 -14 6 -14 14s6 14 14 14h276zM336 254c26 0 48 -22 48 -48v-96c0 -26 -22 -48 -48 -48h-32c0 -12 2 -18 5 -30c1 -6 0 -12 -5 -16c-3 -3 -7 -4 -11 -4
h-214c-6 0 -12 3 -15 8c-3 4 -4 9 -3 14v0c2 12 3 18 3 30v214c0 9 7 16 16 16h208c9 0 16 -7 16 -16v-24h32zM356 110v96c0 11 -9 20 -20 20h-32v-136h32c11 0 20 9 20 20z" />
    <glyph glyph-name="ion-ios-bicycle" unicode="&#xf127;" horiz-adv-x="448" 
d="M93 159c-17 0 -34 -8 -46 -20s-19 -29 -19 -46s7 -34 19 -46s29 -19 46 -19s34 7 46 19s20 29 20 46s-8 35 -20 47s-29 19 -46 19zM93 187v0c51 0 94 -43 94 -94s-43 -93 -94 -93s-93 42 -93 93s42 94 93 94zM288 320c-18 0 -32 14 -32 32s14 32 32 32s32 -14 32 -32
s-14 -32 -32 -32zM355 159c-17 0 -34 -8 -46 -20s-20 -29 -20 -46s8 -34 20 -46s29 -19 46 -19s34 7 46 19s19 29 19 46s-7 35 -19 47s-29 19 -46 19zM355 187v0c51 0 93 -43 93 -94s-42 -93 -93 -93s-94 42 -94 93s43 94 94 94zM336 256c9 0 16 -7 16 -16s-7 -16 -16 -16
h-57s-19 24 -38 52l-49 -52c18 -14 48 -25 48 -38v-90c0 -9 -7 -16 -16 -16s-16 7 -16 16v66s-16 16 -62 42c-6 4 -18 10 -18 27c0 8 3 17 9 23l72 69c6 6 14 9 22 9c11 0 21 -7 27 -16l30 -60h48z" />
    <glyph glyph-name="ion-ios-bluetooth" unicode="&#xf128;" horiz-adv-x="256" 
d="M250 115c7 -6 7 -16 1 -23l-116 -120c-2 -2 -6 -4 -9 -4v0c-6 0 -11 5 -11 11v170l-85 -74c-7 -6 -19 -5 -25 2v0c-6 7 -5 18 2 24l108 91l-109 92c-7 6 -8 17 -2 24v0c6 7 18 7 25 1l86 -73v169c0 6 5 11 11 11v0c3 0 7 -2 9 -4l116 -121c6 -7 6 -17 -1 -23l-88 -76z
M151 347c-1 1 -3 1 -3 -1v-119c0 -2 2 -3 3 -2l63 53c1 1 1 2 0 3zM148 38c0 -2 2 -2 3 -1l63 65c1 1 1 2 0 3l-63 53c-1 1 -3 0 -3 -2v-118z" />
    <glyph glyph-name="ion-ios-boat" unicode="&#xf12a;" horiz-adv-x="400" 
d="M296 26c0 0 27 -24 63 -36c2 -1 1 -4 -1 -4c-23 2 -40 6 -62 12c-22 -10 -67 -14 -96 -14s-73 5 -96 14c-21 -6 -39 -9 -62 -12c-2 0 -3 3 -1 4c36 12 63 36 63 36c26 -9 66 -15 96 -15s70 6 96 15zM390 185c6 -3 10 -9 10 -16c0 -2 0 -5 -1 -7l-55 -136
c-28 0 -57 22 -57 22c-18 -9 -53 -17 -79 -19h-8h-8c-26 2 -61 10 -79 19c0 0 -29 -22 -57 -22l-55 136c-1 2 -1 5 -1 7c0 7 4 13 10 16v0l187 85c2 1 4 1 6 0l187 -85v0zM156 160c7 0 12 10 12 22s-5 22 -12 22s-12 -10 -12 -22s5 -22 12 -22zM244 160c7 0 12 10 12 22
s-5 22 -12 22s-12 -10 -12 -22s5 -22 12 -22zM336 321l18 -97c1 -3 -2 -5 -5 -4l-26 11c-1 0 -2 2 -2 3l-16 86c-3 11 -7 16 -16 16h-177c-9 0 -15 -5 -17 -16l-16 -86c0 -1 -1 -3 -2 -3l-25 -11c-3 -1 -7 1 -6 4l18 97c5 26 17 47 40 47h34l2 8c4 14 16 24 31 24h57
c15 0 27 -10 31 -24l2 -8h35c22 0 34 -20 40 -47v0z" />
    <glyph glyph-name="ion-ios-body" unicode="&#xf3e4;" horiz-adv-x="384" 
d="M144 368c0 27 21 48 48 48s48 -21 48 -48s-21 -48 -48 -48s-48 21 -48 48zM360 304c13 0 24 -11 24 -24s-11 -24 -24 -24h-98c-6 -1 -14 -4 -18 -14c-5 -12 -2 -34 1 -52l4 -21v-1v0l30 -172c2 -13 -6 -26 -19 -28s-26 7 -28 20l-21 120v0s-6 32 -18 32h-1
c-12 0 -19 -32 -19 -32v0l-21 -120c-2 -13 -15 -22 -28 -20s-21 15 -19 28l30 172v0v1l4 21c3 18 6 40 1 52c-4 10 -12 13 -18 14h-98c-13 0 -24 11 -24 24s11 24 24 24h336z" />
    <glyph glyph-name="ion-ios-bonfire" unicode="&#xf12c;" horiz-adv-x="384" 
d="M207 97l15 -75c1 -3 1 -5 1 -8c0 -18 -14 -30 -32 -30s-32 12 -32 30c0 2 1 5 1 7l15 79v0c2 7 8 12 16 12s15 -7 16 -15zM242 93v0v0zM325 62c9 -8 9 -25 0 -35c-10 -10 -27 -9 -35 0c-1 1 -2 2 -3 4l-45 62c-3 5 -2 11 2 15c4 5 10 5 16 1l60 -43c2 -1 3 -3 5 -4z
M308 113v0v0zM371 128c8 0 13 -6 13 -18c0 -9 -10 -17 -18 -15l-57 18h-1v0c-3 2 -5 5 -4 9s4 6 8 6h59zM75 113v0v0zM75 113v0l-58 -18c-8 -2 -17 6 -17 15s4 18 12 18h60s7 -2 8 -6s-2 -7 -5 -9v0zM124 109c5 4 11 3 16 -1c4 -4 5 -10 2 -15l-45 -61c-1 -2 -2 -4 -3 -5
c-10 -10 -25 -10 -35 0s-10 25 0 35c2 2 3 3 5 4zM295 309c0 -30 -10 -55 -51 -81c-37 -24 -93 -43 -109 -100c0 0 -58 23 -48 91s124 100 112 181c24 0 96 -33 96 -91zM295 188c-16 -47 -44 -60 -80 -60c-15 0 -36 12 -47 28c12 14 28 24 47 34c9 5 20 10 29 16
c21 14 39 28 48 46c5 -14 8 -49 3 -64zM98 276c-6 4 -12 16 -11 29c2 21 34 36 32 65c14 2 34 -6 45 -26c-5 -10 -15 -20 -28 -32s-26 -21 -38 -36z" />
    <glyph glyph-name="ion-ios-book" unicode="&#xf3e8;" 
d="M98 384c54 0 100 -28 100 -82v-16v0v0v0v-284c0 -2 -3 -3 -4 -1v0c-10 34 -38 68 -82 71c-34 2 -67 -13 -93 -37c-2 -2 -5 -3 -7 -3h-4c-4 0 -8 3 -8 6v290c0 32 44 56 98 56zM318 384c54 0 98 -24 98 -56v-290c0 -3 -4 -6 -8 -6h-4c-2 0 -5 2 -7 3c-29 26 -60 39 -93 37
c-43 -3 -72 -36 -82 -70v-1c-1 -2 -4 -1 -4 1v284v0v0v0v16c0 54 46 82 100 82z" />
    <glyph glyph-name="ion-ios-bookmark" unicode="&#xf12e;" horiz-adv-x="256" 
d="M0 368c0 18 14 32 32 32h192c18 0 32 -14 32 -32v-380c0 -3 -3 -5 -6 -3l-117 92c-3 2 -7 2 -10 0l-117 -92c-3 -2 -6 0 -6 3v380z" />
    <glyph glyph-name="ion-ios-bookmarks" unicode="&#xf3ea;" horiz-adv-x="432" 
d="M376 416c30 0 56 -25 56 -55v-290c0 -30 -25 -55 -55 -55h-108c-4 0 -8 0 -12 -1c-16 -3 -27 -17 -27 -33c0 -8 -8 -15 -16 -14c-7 1 -12 7 -12 14c0 16 -12 30 -27 33c-4 1 -8 1 -12 1h-108c-30 0 -55 25 -55 55v290c0 30 25 55 55 55h106v0c22 0 41 -18 41 -41v-314
c0 -8 7 -14 15 -14s13 6 13 14v314c0 23 19 41 41 41v0h41v-128l23 15l9 6l9 -6l23 -15v128z" />
    <glyph glyph-name="ion-ios-bowtie" unicode="&#xf130;" horiz-adv-x="448" 
d="M259 234c10 -17 19 -53 17 -85c-1 -17 -5 -22 -5 -22s-12 -7 -36 -7h-11c-35 3 -40 15 -40 15s4 12 8 43s0 58 0 58s7 5 19 7c8 2 17 3 23 3v0c11 0 20 -4 25 -12zM174 239c0 0 3 -16 2 -32v-10c0 -3 -1 -6 -1 -10c0 -5 0 -10 -1 -15l-2 -10c-4 -21 -10 -34 -10 -34
s-77 -80 -110 -80c-28 0 -52 68 -52 144s26 144 52 144c35 0 100 -57 122 -97zM396 336c26 0 52 -68 52 -144s-24 -144 -52 -144c-37 0 -98 69 -106 79c0 0 4 5 5 22v9v8c0 11 -2 23 -4 33l-3 11c-3 10 -7 18 -10 24c0 1 -2 4 -2 4l1 1c22 40 83 97 119 97z" />
    <glyph glyph-name="ion-ios-briefcase" unicode="&#xf3ee;" 
d="M32 0c-18 0 -32 14 -32 32v192h416v-192c0 -18 -14 -32 -32 -32h-352zM384 320c18 0 32 -14 32 -32v-40h-416v40c0 18 14 32 32 32h8v8c0 4 4 8 8 8h32c4 0 8 -4 8 -8v-8h28v32c0 18 14 32 32 32h120c18 0 32 -14 32 -32v-32h28v8c0 4 4 8 8 8h32c4 0 8 -4 8 -8v-8h8z
M272 320v28c0 4 -4 8 -8 8h-112c-4 0 -8 -4 -8 -8v-28h128z" />
    <glyph glyph-name="ion-ios-browsers" unicode="&#xf3f0;" 
d="M0 267c0 22 18 40 40 40h243c22 0 40 -18 40 -40v-243c0 -22 -18 -40 -40 -40h-243c-22 0 -40 18 -40 40v243zM93 360c0 22 18 40 40 40h243c22 0 40 -18 40 -40v-243c0 -22 -18 -40 -40 -40h-28c-2 0 -4 2 -4 4v199c0 26 -22 48 -48 48h-199c-2 0 -4 2 -4 4v28z" />
    <glyph glyph-name="ion-ios-brush" unicode="&#xf132;" horiz-adv-x="448" 
d="M118 165c52 0 102 -42 90 -102c-11 -52 -54 -71 -90 -77c-6 -1 -14 -2 -22 -2c-32 0 -78 8 -95 33c-1 2 -1 5 1 6c20 9 32 26 32 47c0 49 32 95 84 95zM436 388c13 -13 17 -30 5 -45l-145 -165c-5 -6 -8 -12 -8 -20v-1c0 -5 -2 -11 -6 -15l-45 -52c-2 -2 -6 -3 -8 -1
c-1 1 -2 3 -2 5c0 50 -41 82 -87 86c-2 0 -4 2 -5 4v0c-1 2 0 5 2 7l53 43c4 4 10 6 16 6v0v0c7 0 15 3 20 8l165 145c6 5 13 7 19 7c9 0 18 -4 26 -12z" />
    <glyph glyph-name="ion-ios-bug" unicode="&#xf134;" horiz-adv-x="448" 
d="M343 321c-6 -16 -17 -31 -29 -43c-24 -24 -56 -37 -90 -37s-67 13 -91 37c-12 12 -22 27 -28 43c29 39 72 63 119 63s90 -24 119 -63zM90 298c22 -45 69 -80 122 -83v-215c-40 2 -73 23 -100 55l-5 -5c-5 -4 -6 -11 -4 -17c3 -8 1 -18 -5 -25c-9 -10 -24 -11 -34 -2
s-11 24 -2 34l3 3s2 1 2 1c4 13 13 26 27 37c-15 26 -26 56 -29 89c-2 0 -4 -1 -6 -1c-6 -1 -10 -4 -12 -9c-4 -10 -14 -17 -25 -16c-12 1 -21 10 -22 22c-1 14 10 26 24 26h3c4 2 8 5 12 6c7 2 14 4 25 4c1 23 6 45 13 65c-6 4 -11 7 -15 11c-5 4 -9 9 -12 14
c-2 3 -3 5 -6 7c-2 1 -4 3 -6 5c-7 7 -7 18 -3 27c6 12 21 17 33 10c11 -6 15 -20 10 -31c2 -4 4 -7 6 -9s6 -3 6 -3zM424 192c14 0 25 -12 24 -26c-1 -12 -10 -21 -22 -22c-11 -1 -20 6 -24 15c-2 6 -7 9 -13 10c-2 0 -4 1 -6 1c-3 -33 -14 -64 -29 -90
c14 -11 23 -23 27 -36c0 0 1 0 2 -1l3 -3c9 -10 8 -25 -2 -34s-25 -8 -34 2c-6 7 -8 16 -5 24c2 6 1 14 -4 18c-2 1 -3 2 -5 4c-27 -32 -60 -52 -100 -54v215c53 3 100 37 122 82c0 0 4 2 6 4c3 3 4 6 6 9c-5 11 -1 25 10 31c12 6 27 3 33 -9s3 -27 -9 -33v0
c-2 -1 -5 -4 -6 -6c-3 -5 -7 -11 -12 -15c-4 -4 -9 -7 -15 -11c7 -20 12 -42 13 -65c11 0 18 -2 25 -4c4 -1 8 -4 12 -6h3z" />
    <glyph glyph-name="ion-ios-build" unicode="&#xf136;" 
d="M393 317c4 3 9 3 12 -1c8 -12 12 -24 11 -34c-1 -12 -6 -36 -30 -60c-17 -17 -45 -30 -72 -30c-11 0 -22 3 -32 8c-2 1 -6 2 -9 2s-7 -1 -11 -5c-9 -9 -188 -200 -188 -200c-8 -9 -19 -13 -30 -13s-23 5 -31 13c-17 17 -18 45 0 61c0 0 192 181 200 188c7 7 4 15 2 20
c-19 44 3 83 23 104c21 22 48 29 60 30h2c10 0 22 -4 32 -11c4 -3 5 -8 1 -12l-45 -45c-1 -1 -1 -2 -1 -3l8 -47c0 -2 1 -3 3 -3l47 -8c1 0 2 0 3 1zM55 19c5 5 5 14 0 20c-6 5 -14 5 -20 0c-5 -6 -5 -14 0 -20c6 -5 14 -5 20 0z" />
    <glyph glyph-name="ion-ios-bulb" unicode="&#xf138;" horiz-adv-x="296" 
d="M296 259c0 -31 -13 -56 -30 -80v0c-11 -15 -22 -18 -32 -35c-14 -24 -17 -41 -18 -56c0 -8 -8 -15 -16 -15h-10c-2 0 -4 2 -4 4v94c0 5 1 11 3 15l22 42c3 7 -1 15 -9 15v0c-4 0 -7 -3 -9 -6l-26 -51c-2 -4 -3 -9 -3 -14v-95c0 -2 -2 -4 -4 -4h-24c-2 0 -4 2 -4 4v95
c0 5 -1 10 -3 14l-26 51c-2 4 -5 6 -9 6v0c-8 0 -13 -8 -9 -15l21 -42c2 -4 3 -9 3 -14v-95c0 -2 -2 -4 -4 -4h-9c-8 0 -16 6 -16 15c-1 15 -4 31 -19 56c-10 17 -20 20 -31 35v0c-17 24 -30 49 -30 80c0 78 70 141 148 141s148 -63 148 -141zM130 -16c-8 0 -14 6 -14 14v0
c0 8 6 14 14 14h36c8 0 14 -6 14 -14v0c0 -8 -6 -14 -14 -14h-36zM110 28c-8 0 -14 6 -14 14v0c0 8 6 14 14 14h76c8 0 14 -6 14 -14v0c0 -8 -6 -14 -14 -14h-76z" />
    <glyph glyph-name="ion-ios-bus" unicode="&#xf13a;" horiz-adv-x="320" 
d="M14 31c11 -12 24 -9 58 -9c0 -10 1 -22 -3 -22h-55c-4 0 -5 7 -6 29c0 3 4 4 6 2zM306 31c2 2 6 1 6 -2c-1 -22 -2 -29 -6 -29h-55s-3 12 -3 22c34 0 47 -3 58 9zM288 384c18 0 32 -14 32 -32v0v-276c0 -22 -18 -40 -40 -40h-240c-22 0 -40 18 -40 40v276v0
c0 18 14 32 32 32h8h240h8zM66 72c12 1 21 10 22 22c1 15 -11 27 -26 26c-12 -1 -21 -10 -22 -22c-1 -15 11 -27 26 -26zM142 150c2 0 4 2 4 4v140c0 2 -2 4 -4 4h-98c-9 0 -16 -7 -16 -16v-116c0 -9 7 -16 16 -16h98zM258 72c12 1 21 10 22 22c1 15 -11 27 -26 26
c-12 -1 -21 -10 -22 -22c-1 -15 11 -27 26 -26zM292 166v116c0 9 -7 16 -16 16h-98c-2 0 -4 -2 -4 -4v-140c0 -2 2 -4 4 -4h98c9 0 16 7 16 16zM277 328c9 0 15 6 15 14s-6 14 -15 14h-234c-9 0 -15 -6 -15 -14s6 -14 15 -14h234z" />
    <glyph glyph-name="ion-ios-business" unicode="&#xf1a3;" horiz-adv-x="320" 
d="M50 368c-10 0 -18 8 -18 18v0c0 10 8 18 18 18h220c10 0 18 -8 18 -18v0c0 -10 -8 -18 -18 -18h-220zM302 348c10 0 18 -8 18 -18c0 -9 -7 -17 -16 -18v-300c0 -13 -11 -24 -24 -24h-88c-4 0 -8 4 -8 8v40c0 4 -4 8 -8 8h-32c-4 0 -8 -4 -8 -8v-40c0 -4 -4 -8 -8 -8h-88
c-13 0 -24 11 -24 24v300c-9 1 -16 9 -16 18c0 10 8 18 18 18h284zM96 84v16c0 4 -4 8 -8 8h-16c-4 0 -8 -4 -8 -8v-16c0 -4 4 -8 8 -8h16c4 0 8 4 8 8zM96 148v16c0 4 -4 8 -8 8h-16c-4 0 -8 -4 -8 -8v-16c0 -4 4 -8 8 -8h16c4 0 8 4 8 8zM96 212v16c0 4 -4 8 -8 8h-16
c-4 0 -8 -4 -8 -8v-16c0 -4 4 -8 8 -8h16c4 0 8 4 8 8zM96 276v16c0 4 -4 8 -8 8h-16c-4 0 -8 -4 -8 -8v-16c0 -4 4 -8 8 -8h16c4 0 8 4 8 8zM176 84v16c0 4 -4 8 -8 8h-16c-4 0 -8 -4 -8 -8v-16c0 -4 4 -8 8 -8h16c4 0 8 4 8 8zM176 148v16c0 4 -4 8 -8 8h-16
c-4 0 -8 -4 -8 -8v-16c0 -4 4 -8 8 -8h16c4 0 8 4 8 8zM176 212v16c0 4 -4 8 -8 8h-16c-4 0 -8 -4 -8 -8v-16c0 -4 4 -8 8 -8h16c4 0 8 4 8 8zM176 276v16c0 4 -4 8 -8 8h-16c-4 0 -8 -4 -8 -8v-16c0 -4 4 -8 8 -8h16c4 0 8 4 8 8zM256 84v16c0 4 -4 8 -8 8h-16
c-4 0 -8 -4 -8 -8v-16c0 -4 4 -8 8 -8h16c4 0 8 4 8 8zM256 148v16c0 4 -4 8 -8 8h-16c-4 0 -8 -4 -8 -8v-16c0 -4 4 -8 8 -8h16c4 0 8 4 8 8zM256 212v16c0 4 -4 8 -8 8h-16c-4 0 -8 -4 -8 -8v-16c0 -4 4 -8 8 -8h16c4 0 8 4 8 8zM256 276v16c0 4 -4 8 -8 8h-16
c-4 0 -8 -4 -8 -8v-16c0 -4 4 -8 8 -8h16c4 0 8 4 8 8z" />
    <glyph glyph-name="ion-ios-cafe" unicode="&#xf13c;" 
d="M322 44c8 0 14 -7 14 -15s-7 -13 -15 -13h-259c-8 0 -14 7 -14 15s6 13 14 13h260zM351 330v0c39 -14 65 -49 65 -88c0 -25 -11 -49 -30 -67s-45 -27 -72 -27h-6v0c-16 -28 -36 -50 -58 -64c-19 -12 -38 -20 -44 -20h-60c-9 0 -46 12 -78 49c-18 21 -33 47 -44 79
c-14 38 -22 84 -24 136c0 11 4 22 12 30c7 7 17 10 27 10h274c10 0 19 -3 26 -10c8 -8 12 -17 12 -28zM322 176v0c37 3 66 32 66 66c0 13 -5 26 -13 37c-7 9 -16 16 -26 21v0c-4 -47 -13 -90 -27 -124z" />
    <glyph glyph-name="ion-ios-calculator" unicode="&#xf3f2;" horiz-adv-x="296" 
d="M264 400c18 0 32 -14 32 -32v-352c0 -18 -14 -32 -32 -32h-232c-18 0 -32 14 -32 32v352c0 18 14 32 32 32h232zM252 128c0 13 -11 24 -24 24v0c-13 0 -24 -11 -24 -24v-80c0 -13 11 -24 24 -24v0c13 0 24 11 24 24v80zM252 208c0 13 -11 24 -24 24v0
c-13 0 -24 -11 -24 -24v0c0 -13 11 -24 24 -24v0c13 0 24 11 24 24v0zM172 48c0 13 -11 24 -24 24v0c-13 0 -24 -11 -24 -24v0c0 -13 11 -24 24 -24v0c13 0 24 11 24 24v0zM172 128c0 13 -11 24 -24 24v0c-13 0 -24 -11 -24 -24v0c0 -13 11 -24 24 -24v0c13 0 24 11 24 24v0
zM172 208c0 13 -11 24 -24 24v0c-13 0 -24 -11 -24 -24v0c0 -13 11 -24 24 -24v0c13 0 24 11 24 24v0zM92 48c0 13 -11 24 -24 24v0c-13 0 -24 -11 -24 -24v0c0 -13 11 -24 24 -24v0c13 0 24 11 24 24v0zM92 128c0 13 -11 24 -24 24v0c-13 0 -24 -11 -24 -24v0
c0 -13 11 -24 24 -24v0c13 0 24 11 24 24v0zM92 208c0 13 -11 24 -24 24v0c-13 0 -24 -11 -24 -24v0c0 -13 11 -24 24 -24v0c13 0 24 11 24 24v0zM44 288c0 -9 7 -16 16 -16h176c9 0 16 7 16 16v48c0 9 -7 16 -16 16h-176c-9 0 -16 -7 -16 -16v-48z" />
    <glyph glyph-name="ion-ios-calendar" unicode="&#xf3f4;" 
d="M376 352c22 0 40 -18 40 -40v-272c0 -22 -18 -40 -40 -40h-336c-22 0 -40 18 -40 40v272c0 22 18 40 40 40h40v-24c0 -4 4 -8 8 -8h16c4 0 8 4 8 8v24h192v-24c0 -4 4 -8 8 -8h16c4 0 8 4 8 8v24h40zM384 52v180c0 4 -4 8 -8 8h-336c-4 0 -8 -4 -8 -8v-180
c0 -11 9 -20 20 -20h312c11 0 20 9 20 20zM112 376v-24h-32v24c0 4 4 8 8 8h16c4 0 8 -4 8 -8zM336 376v-24h-32v24c0 4 4 8 8 8h16c4 0 8 -4 8 -8z" />
    <glyph glyph-name="ion-ios-call" unicode="&#xf13e;" horiz-adv-x="384" 
d="M373 83c15 -15 12 -18 9 -26c0 0 -5 -12 -13 -24c-10 -15 -18 -23 -30 -29s-35 -12 -95 22c-48 27 -85 53 -125 93v0v0v0v0c-40 39 -66 77 -93 125c-34 60 -27 82 -21 94s13 21 28 31c12 8 24 13 24 13c8 3 11 6 26 -9s37 -49 45 -67c10 -20 10 -28 0 -42
c-8 -12 -17 -20 -14 -34s24 -41 50 -67s52 -46 66 -49s22 5 34 14c14 10 22 10 42 0c17 -8 52 -30 67 -45z" />
    <glyph glyph-name="ion-ios-camera" unicode="&#xf3f6;" horiz-adv-x="384" 
d="M134 173c0 32 26 57 58 57s58 -25 58 -57s-26 -57 -58 -57s-58 25 -58 57zM354 288c18 0 30 -13 30 -31v-176c0 -18 -12 -33 -30 -33h-320c-18 0 -34 15 -34 33v176c0 18 16 31 34 31h7v8c0 4 4 8 8 8h26c4 0 8 -4 8 -8v-8h4c4 0 9 2 12 5c28 32 40 43 52 43h85
c12 0 23 -11 51 -43c3 -3 7 -5 12 -5h55zM196 88c44 2 79 37 81 81c2 50 -39 91 -89 89c-44 -2 -79 -37 -81 -81c-2 -50 39 -91 89 -89zM288 230c7 0 13 6 13 13s-6 13 -13 13s-13 -6 -13 -13s6 -13 13 -13z" />
    <glyph glyph-name="ion-ios-car" unicode="&#xf140;" 
d="M368 252c26 -22 48 -46 48 -85v-76c0 -4 -2 -7 -6 -8c-15 -3 -62 -10 -202 -10s-187 7 -202 10c-4 1 -6 4 -6 8v76c0 39 24 62 48 85c15 33 49 92 100 92h120c51 0 86 -61 100 -92zM142 320c-35 0 -62 -60 -62 -70h256c0 10 -22 70 -62 70h-132zM64 116c18 0 32 14 32 32
s-14 32 -32 32s-32 -14 -32 -32s14 -32 32 -32zM280 148v0c0 9 -7 16 -16 16h-112c-9 0 -16 -7 -16 -16v0c0 -9 7 -16 16 -16h112c9 0 16 7 16 16zM352 116c18 0 32 14 32 32s-14 32 -32 32s-32 -14 -32 -32s14 -32 32 -32zM112 64c0 -11 1 -24 -5 -24h-85s-6 12 -6 29
c0 0 48 -5 96 -5zM304 64c48 0 96 5 96 5c0 -16 2 -29 -5 -29h-86s-5 14 -5 24z" />
    <glyph glyph-name="ion-ios-card" unicode="&#xf142;" horiz-adv-x="448" 
d="M448 320v-48h-448v48c0 18 14 32 32 32h384c18 0 32 -14 32 -32zM0 64v160h448v-160c0 -18 -14 -32 -32 -32h-384c-18 0 -32 14 -32 32zM142 112c-8 0 -14 -6 -14 -14v0c0 -8 6 -14 14 -14h164c8 0 14 6 14 14v0c0 8 -6 14 -14 14h-164zM70 112c-8 0 -14 -6 -14 -14v0
c0 -8 6 -14 14 -14h12c8 0 14 6 14 14v0c0 8 -6 14 -14 14h-12z" />
    <glyph glyph-name="ion-ios-cart" unicode="&#xf3f8;" 
d="M88 24c0 13 10 24 23 24s25 -11 25 -24s-11 -24 -24 -24s-24 11 -24 24zM336 0c-13 0 -24 12 -24 25s12 23 25 23s23 -12 23 -25s-11 -23 -24 -23zM416 316v-3l-16 -116c0 -3 -2 -5 -5 -5l-278 -47v0l4 -24c3 -16 7 -23 11 -26c3 -3 7 -3 9 -3v0h237c8 0 14 -6 14 -14
s-6 -14 -14 -14h-237c-13 0 -25 5 -33 16c-7 9 -12 22 -14 36l-40 212s-2 9 -2 10v0c-1 7 -5 15 -10 16s-17 2 -26 2s-16 5 -16 14s7 14 16 14c27 0 41 0 49 -9c6 -8 8 -12 12 -19c1 -3 5 -4 8 -4l325 -32c2 0 5 -2 6 -4z" />
    <glyph glyph-name="ion-ios-cash" unicode="&#xf144;" horiz-adv-x="448" 
d="M434 92c8 0 14 -6 14 -14s-6 -14 -14 -14h-420c-8 0 -14 6 -14 14s6 14 14 14h420zM434 44c8 0 14 -6 14 -14s-6 -14 -14 -14h-420c-8 0 -14 6 -14 14s6 14 14 14h420zM413 368c19 0 35 -16 35 -35v-178c0 -19 -16 -35 -35 -35h-378c-19 0 -35 16 -35 35v178
c0 19 16 35 35 35h378zM82 152c8 0 14 6 14 14s-6 14 -14 14h-36c-8 0 -14 -6 -14 -14s6 -14 14 -14h36zM82 308c8 0 14 6 14 14s-6 14 -14 14h-36c-8 0 -14 -6 -14 -14s6 -14 14 -14h36zM224 164c44 0 80 36 80 80s-36 80 -80 80s-80 -36 -80 -80s36 -80 80 -80zM402 152
c8 0 14 6 14 14s-6 14 -14 14h-36c-8 0 -14 -6 -14 -14s6 -14 14 -14h36zM402 308c8 0 14 6 14 14s-6 14 -14 14h-36c-8 0 -14 -6 -14 -14s6 -14 14 -14h36zM171 242c0 29 24 53 53 53s53 -24 53 -53s-24 -53 -53 -53s-53 24 -53 53z" />
    <glyph glyph-name="ion-ios-cellular" unicode="&#xf13d;" 
d="M360 396c36 -34 56 -78 56 -126v0v0v0c0 -48 -20 -93 -56 -127c-3 -2 -5 -3 -9 -3s-7 2 -10 4c-3 3 -4 5 -4 9s1 8 4 10c30 29 47 67 47 107v0c0 41 -17 79 -47 107c-3 3 -4 5 -4 9s1 7 4 10c3 2 6 4 10 4s6 -2 9 -4zM303 351c23 -22 35 -50 35 -81v0v0v0
c0 -31 -12 -59 -35 -81c-2 -2 -6 -4 -9 -4s-7 1 -9 3s-4 6 -4 9s2 7 4 9c18 17 28 40 28 64v0c0 24 -10 47 -28 64c-2 2 -4 6 -4 9s2 6 4 8s6 4 9 4s7 -2 9 -4zM75 377c-30 -28 -47 -66 -47 -107v0c0 -41 17 -79 47 -107c3 -3 4 -6 4 -10s-1 -6 -4 -9c-3 -2 -6 -4 -10 -4
s-6 1 -9 3c-36 34 -56 79 -56 127v0v0c0 48 20 92 56 126c3 2 5 4 9 4v0c4 0 7 -2 10 -4c3 -3 4 -6 4 -10s-1 -7 -4 -9zM131 334c-18 -17 -28 -40 -28 -64v0c0 -24 10 -47 28 -64c2 -2 4 -6 4 -9s-2 -7 -4 -9s-6 -3 -9 -3s-7 2 -9 4c-23 22 -35 50 -35 81v0v0
c0 31 12 59 35 81c2 2 6 4 9 4s7 -2 9 -4s4 -5 4 -8s-2 -7 -4 -9zM208 325c26 0 48 -22 48 -48c0 -22 -14 -40 -34 -46v-233c0 -8 -6 -14 -14 -14s-14 6 -14 14v233c-20 6 -34 24 -34 46c0 26 22 48 48 48z" />
    <glyph glyph-name="ion-ios-chatboxes" unicode="&#xf3fa;" 
d="M378 278c21 0 38 -17 38 -38v-155c0 -21 -21 -38 -42 -38h-1c-6 0 -10 -2 -10 -8v-50c0 -5 -5 -6 -9 -3l-63 58c-2 2 -5 3 -8 3h-127c-21 0 -38 17 -38 38v155c0 21 17 38 38 38h222zM126 302c-18 0 -32 -14 -32 -32v-100h-61c-18 0 -33 14 -33 32v165c0 18 15 33 33 33
h238c18 0 33 -15 33 -33v-65h-178z" />
    <glyph glyph-name="ion-ios-chatbubbles" unicode="&#xf146;" 
d="M383 127l16 -58s1 -2 1 -3c0 -4 -4 -8 -8 -8c-2 0 -4 1 -4 1l-57 21c-3 1 -6 2 -10 2c-3 0 -6 -1 -9 -2s-15 -5 -26 -8s-32 -8 -47 -8c-96 0 -171 77 -171 169c0 12 2 23 4 34c16 76 86 133 170 133c96 0 174 -75 174 -167c0 -33 -11 -64 -28 -90c-1 -1 -1 -2 -2 -3
c-2 -4 -3 -9 -3 -13zM270 56c4 1 9 2 13 3c-4 -5 -7 -9 -7 -9c-30 -35 -73 -56 -120 -56c-21 0 -42 5 -61 12c-4 2 -6 2 -6 2c-2 0 -4 0 -6 -1l-56 -22c-1 0 -2 -1 -3 -1c-2 0 -3 1 -5 2c-2 2 -4 5 -3 8c0 0 12 60 12 62s-1 4 -3 8c-16 24 -25 53 -25 82c0 42 19 82 52 111
l8 7c-1 -4 -3 -9 -4 -13s-1 -9 -2 -13c-1 -6 -2 -14 -2 -21c0 -92 75 -169 171 -169c10 0 24 2 34 4c5 1 9 3 13 4z" />
    <glyph glyph-name="ion-ios-checkbox-outline" unicode="&#xf147;" horiz-adv-x="384" 
d="M352 384c18 0 32 -14 32 -32v-320c0 -18 -14 -32 -32 -32h-320c-18 0 -32 14 -32 32v320c0 18 14 32 32 32h320zM356 36v312c0 4 -4 8 -8 8h-312c-4 0 -8 -4 -8 -8v-312c0 -4 4 -8 8 -8h312c4 0 8 4 8 8zM300 255c2 -2 1 -4 0 -6l-134 -134v0c-2 -2 -7 -5 -12 -5
c-4 0 -7 1 -11 5l-56 56c-2 2 -2 4 0 6l17 18c1 1 2 1 3 1s2 0 3 -1l44 -45l122 123c1 1 2 1 3 1v0c1 0 2 0 3 -1z" />
    <glyph glyph-name="ion-ios-checkbox" unicode="&#xf148;" horiz-adv-x="384" 
d="M352 384c18 0 32 -14 32 -32v-320c0 -18 -14 -32 -32 -32h-320c-18 0 -32 14 -32 32v320c0 18 14 32 32 32h320zM300 250c2 2 1 3 -1 5l-17 18c-1 1 -2 2 -3 2v0c-1 0 -2 -1 -3 -2l-122 -123l-44 45c-1 1 -2 1 -3 1s-2 0 -3 -1l-18 -18c-2 -2 -2 -4 0 -6l56 -56
c4 -4 8 -5 12 -5c5 0 10 3 12 5v0z" />
    <glyph glyph-name="ion-ios-checkmark-circle-outline" unicode="&#xf149;" 
d="M315 255c2 -2 1 -4 0 -6l-134 -134v0c-2 -2 -7 -5 -12 -5c-4 0 -7 1 -11 5l-56 56c-2 2 -2 4 0 6l17 18c1 1 2 1 3 1s2 0 3 -1l44 -45l122 123c1 1 2 1 3 1v0c1 0 2 0 3 -1zM208 372c-48 0 -93 -19 -127 -53s-53 -79 -53 -127s19 -93 53 -127s79 -53 127 -53
s93 19 127 53s53 79 53 127s-19 93 -53 127s-79 53 -127 53zM208 400v0c115 0 208 -93 208 -208s-93 -208 -208 -208s-208 93 -208 208s93 208 208 208z" />
    <glyph glyph-name="ion-ios-checkmark-circle" unicode="&#xf14a;" 
d="M208 400c115 0 208 -93 208 -208s-93 -208 -208 -208s-208 93 -208 208s93 208 208 208zM314 250c2 2 2 3 0 5l-17 18c-1 1 -2 2 -3 2v0c-1 0 -2 -1 -3 -2l-122 -123l-44 45c-1 1 -2 1 -3 1s-2 0 -3 -1l-18 -18c-2 -2 -2 -4 0 -6l56 -56c4 -4 8 -5 12 -5c5 0 10 3 12 5v0
z" />
    <glyph glyph-name="ion-ios-checkmark" unicode="&#xf3ff;" horiz-adv-x="215" 
d="M214 255c2 -2 1 -4 0 -6l-133 -134h-1c-2 -2 -6 -5 -11 -5c-4 0 -8 1 -12 5l-56 56c-2 2 -2 4 0 6l18 18c1 1 2 1 3 1s2 0 3 -1l44 -45l122 123c1 1 2 1 3 1v0c1 0 2 0 3 -1z" />
    <glyph glyph-name="ion-ios-clipboard" unicode="&#xf14c;" horiz-adv-x="352" 
d="M60 288c0 9 7 16 16 16h200c9 0 16 -7 16 -16v-240c0 -9 -7 -16 -16 -16h-200c-9 0 -16 7 -16 16v240zM242 367c8 0 14 -7 14 -15v-18c0 -1 -1 -2 -2 -2h-156c-1 0 -2 1 -2 2v16c0 10 8 17 18 17h14c0 6 1 11 3 16c2 6 6 11 10 16c9 10 21 17 35 17s27 -7 36 -17
c4 -5 8 -10 10 -16c2 -5 2 -10 2 -16h18zM179 352c7 1 12 6 13 13c1 10 -8 19 -18 18c-7 -1 -12 -7 -13 -14c-1 -10 8 -18 18 -17zM320 400c18 0 32 -14 32 -32v-368c0 -17 -15 -32 -32 -32h-288c-18 0 -32 14 -32 56v344c0 18 14 32 32 32h76c2 0 3 -2 2 -3
c-3 -4 -6 -9 -8 -16c0 -1 0 -1 -1 -1h-1c-22 0 -27 -18 -27 -37v-9c0 -1 -1 -2 -2 -2h-22c-9 0 -16 -7 -16 -16v-297c0 -9 7 -16 16 -16h253c9 0 16 7 16 16v297c0 9 -7 16 -16 16h-20c-1 0 -2 1 -2 2v14v1v0c-1 19 -8 34 -27 34h-1c-1 0 -2 0 -2 1c-2 5 -4 9 -7 13
c-1 1 0 3 2 3h75z" />
    <glyph glyph-name="ion-ios-clock" unicode="&#xf403;" 
d="M355 339c81 -81 81 -213 0 -294s-213 -81 -294 0s-81 213 0 294s213 81 294 0zM42 184c3 1 5 3 6 6c1 6 -3 11 -9 10c-3 -1 -6 -3 -7 -6c-1 -6 4 -11 10 -10zM68 102c2 2 3 5 2 8c-2 5 -9 8 -13 4c-2 -2 -3 -5 -2 -8c2 -5 9 -8 13 -4zM70 274c1 3 0 6 -2 8
c-4 4 -11 1 -13 -4c-1 -3 0 -6 2 -8c4 -4 11 -1 13 4zM132 44c1 3 -1 6 -3 8c-4 4 -10 2 -12 -3c-1 -3 0 -7 2 -9c4 -4 11 -1 13 4zM129 332c2 2 4 5 3 8c-2 5 -9 8 -13 4c-2 -2 -3 -6 -2 -9c2 -5 8 -7 12 -3zM165 255l33 -61c1 -2 2 -5 2 -8v-122c0 -5 3 -8 8 -8s8 3 8 8
v122c0 5 -2 10 -4 15l-34 63c-2 4 -7 4 -11 2s-4 -7 -2 -11zM210 16c3 1 5 3 6 6c1 6 -3 11 -9 10c-3 -1 -6 -3 -7 -6c-1 -6 4 -11 10 -10zM210 352c3 1 5 3 6 6c1 6 -3 11 -9 10c-3 -1 -6 -3 -7 -6c-1 -6 4 -11 10 -10zM297 40c2 2 4 6 3 9c-2 5 -9 7 -13 3
c-2 -2 -3 -5 -2 -8c2 -5 8 -8 12 -4zM300 335c1 3 -1 7 -3 9c-4 4 -10 1 -12 -4c-1 -3 0 -6 2 -8c4 -4 11 -2 13 3zM361 106c1 3 0 6 -2 8c-4 4 -11 1 -13 -4c-1 -3 0 -6 2 -8c4 -4 11 -1 13 4zM359 270c2 2 3 5 2 8c-2 5 -9 8 -13 4c-2 -2 -3 -5 -2 -8c2 -5 9 -8 13 -4z
M378 184c3 1 5 3 6 6c1 6 -3 11 -9 10c-3 -1 -6 -3 -7 -6c-1 -6 4 -11 10 -10z" />
    <glyph glyph-name="ion-ios-close-circle-outline" unicode="&#xf14d;" 
d="M283 139c6 -6 6 -16 0 -22s-16 -6 -22 0l-53 52l-53 -52c-6 -6 -16 -6 -22 0s-7 15 0 22s52 53 52 53s-46 47 -52 53s-7 15 0 22s16 6 22 0l53 -52l53 52c6 6 16 6 22 0s6 -16 0 -22l-52 -53zM208 372c-48 0 -93 -19 -127 -53s-53 -79 -53 -127s19 -93 53 -127
s79 -53 127 -53s93 19 127 53s53 79 53 127s-19 93 -53 127s-79 53 -127 53zM208 400v0c115 0 208 -93 208 -208s-93 -208 -208 -208s-208 93 -208 208s93 208 208 208z" />
    <glyph glyph-name="ion-ios-close-circle" unicode="&#xf14e;" 
d="M208 400c115 0 208 -93 208 -208s-93 -208 -208 -208s-208 93 -208 208s93 208 208 208zM261 117c6 -6 16 -6 22 0s6 16 0 22l-52 53l52 53c6 6 6 16 0 22s-16 6 -22 0l-53 -52l-53 52c-6 6 -16 6 -22 0c-3 -3 -5 -7 -5 -11s2 -8 5 -11l52 -53l-52 -53
c-3 -3 -5 -7 -5 -11s2 -8 5 -11c6 -6 16 -6 22 0l53 52z" />
    <glyph glyph-name="ion-ios-close" unicode="&#xf406;" horiz-adv-x="191" 
d="M118 192l68 -68c6 -6 6 -17 0 -23s-16 -6 -22 0l-68 68l-69 -68c-6 -6 -16 -6 -22 0c-3 3 -5 7 -5 11s2 9 5 12l68 68l-68 68c-3 3 -5 8 -5 12s2 8 5 11c6 6 16 6 22 0l69 -68l68 68c6 6 16 6 22 0s6 -17 0 -23z" />
    <glyph glyph-name="ion-ios-cloud-circle" unicode="&#xf152;" 
d="M208 400c115 0 208 -93 208 -208s-93 -208 -208 -208s-208 93 -208 208s93 208 208 208zM291 128c25 0 45 21 45 47c0 23 -16 42 -38 46c-4 38 -34 67 -72 67c-26 0 -49 -14 -62 -34c-4 2 -10 4 -15 4c-20 0 -36 -17 -36 -37c-20 -6 -33 -25 -33 -46c0 -26 20 -47 45 -47
h166z" />
    <glyph glyph-name="ion-ios-cloud-done" unicode="&#xf154;" horiz-adv-x="512" 
d="M437 218c43 -8 75 -47 75 -92c0 -50 -41 -94 -91 -94h-330c-50 0 -91 44 -91 94c0 41 26 80 66 93c1 39 33 74 72 74c10 0 19 -3 27 -6c27 39 72 65 123 65c77 0 141 -59 149 -134zM362 236c2 2 2 3 0 5l-17 18c-1 1 -2 2 -3 2v0c-1 0 -2 -1 -3 -2l-122 -123l-44 45
c-1 1 -2 1 -3 1s-2 0 -3 -1l-18 -18c-2 -2 -2 -4 0 -6l56 -56c4 -4 8 -5 12 -5c5 0 10 3 12 5v0z" />
    <glyph glyph-name="ion-ios-cloud-download" unicode="&#xf408;" horiz-adv-x="512" 
d="M437 282c43 -8 75 -47 75 -92c0 -50 -41 -94 -91 -94h-152v141c0 7 -6 13 -13 13s-13 -6 -13 -13v-141h-152c-50 0 -91 44 -91 94c0 41 26 80 66 93c1 39 33 74 72 74c10 0 19 -3 27 -6c27 39 72 65 123 65c77 0 141 -59 149 -134zM243 12v84h26v-84l48 47c5 5 13 5 18 0
s5 -13 0 -18l-70 -69v0c-1 -1 -2 -2 -4 -3s-3 -1 -5 -1c-3 0 -7 2 -9 4l-70 69c-5 5 -5 13 0 18s13 5 18 0z" />
    <glyph glyph-name="ion-ios-cloud-outline" unicode="&#xf409;" horiz-adv-x="512" 
d="M288 324c-40 0 -77 -20 -100 -53l-7 -9c-4 -5 -10 -7 -16 -5l-11 4c-5 2 -10 4 -16 4c-11 0 -22 -5 -30 -14s-14 -20 -14 -32v-11c0 -6 -4 -10 -9 -12l-10 -4c-14 -4 -25 -13 -34 -25c-8 -12 -13 -27 -13 -41c0 -17 7 -33 19 -46s28 -20 44 -20h330c16 0 32 7 44 20
s19 29 19 46c0 15 -5 30 -15 42s-23 21 -37 23l-11 2c-6 1 -10 5 -11 11l-1 11c-3 30 -17 57 -39 77s-52 32 -82 32zM288 352v0c77 0 141 -59 149 -134c43 -8 75 -47 75 -92c0 -50 -41 -94 -91 -94h-330c-50 0 -91 44 -91 94c0 41 26 80 66 93c1 39 33 74 72 74
c10 0 19 -3 27 -6c27 39 72 65 123 65z" />
    <glyph glyph-name="ion-ios-cloud-upload" unicode="&#xf40b;" horiz-adv-x="512" 
d="M437 282c43 -8 75 -47 75 -92c0 -50 -41 -94 -91 -94h-152v142l48 -47c5 -5 13 -5 18 0s5 13 0 18l-70 69c-2 2 -6 4 -9 4c-2 0 -3 0 -5 -1s-3 -2 -4 -3v0l-70 -69c-5 -5 -5 -13 0 -18s13 -5 18 0l48 47v-142h-152c-50 0 -91 44 -91 94c0 41 26 80 66 93
c1 39 33 74 72 74c10 0 19 -3 27 -6c27 39 72 65 123 65c77 0 141 -59 149 -134zM243 -19v115h26v-115c0 -7 -6 -13 -13 -13s-13 6 -13 13z" />
    <glyph glyph-name="ion-ios-cloud" unicode="&#xf40c;" horiz-adv-x="512" 
d="M437 218c43 -8 75 -47 75 -92c0 -50 -41 -94 -91 -94h-330c-50 0 -91 44 -91 94c0 41 26 80 66 93c1 39 33 74 72 74c10 0 19 -3 27 -6c27 39 72 65 123 65c77 0 141 -59 149 -134z" />
    <glyph glyph-name="ion-ios-cloudy-night" unicode="&#xf40e;" horiz-adv-x="448" 
d="M246 153c42 0 76 -35 76 -77s-34 -76 -76 -76h-186c-34 0 -60 29 -60 62c0 32 24 59 55 62v9c0 50 41 91 92 91c44 0 80 -30 89 -71h8h2zM420 143c7 0 16 2 23 3c4 0 6 -3 4 -6c-4 -6 -10 -13 -15 -19c-22 -25 -53 -43 -87 -51c0 2 1 4 1 6c0 26 -10 52 -29 71
c-17 17 -39 28 -63 30c-7 18 -19 34 -34 46c-21 17 -47 25 -73 25h-5c9 61 54 112 114 130c8 2 15 5 23 6c3 0 6 -3 4 -6l-11 -19c-10 -20 -16 -42 -16 -65c0 -40 16 -79 46 -107c30 -29 68 -45 110 -45c3 0 6 1 8 1z" />
    <glyph glyph-name="ion-ios-cloudy" unicode="&#xf410;" horiz-adv-x="448" 
d="M204 352v0c70 0 113 -49 125 -103h6h7c58 0 106 -50 106 -109s-48 -108 -106 -108h-257c-47 0 -85 41 -85 88c0 44 34 84 77 88c0 4 -1 9 -1 13c0 71 58 131 128 131z" />
    <glyph glyph-name="ion-ios-code-download" unicode="&#xf155;" horiz-adv-x="384" 
d="M268 305l114 -109c1 -1 2 -2 2 -4s-1 -3 -2 -4l-114 -109c-1 -1 -2 -2 -4 -2s-3 1 -4 2l-14 13c-1 1 -2 2 -2 4s1 3 2 4l96 92l-96 92c-1 1 -2 2 -2 4s1 3 2 4l14 13c1 1 3 2 4 2s3 -1 4 -2zM42 192l96 -92c1 -1 2 -2 2 -4s-1 -3 -2 -4l-14 -13c-1 -1 -2 -2 -4 -2
c-1 0 -3 1 -4 2l-114 109c-1 1 -2 2 -2 4s1 3 2 4l114 109c1 1 3 2 4 2s3 -1 4 -2l14 -13c1 -1 2 -2 2 -4s-1 -3 -2 -4zM269 181c0 -4 -2 -8 -5 -11l-62 -57c-3 -2 -6 -4 -10 -4s-7 2 -10 4l-62 57c-3 3 -5 7 -5 11s1 7 4 10v0c3 3 7 4 11 4c3 0 6 -1 9 -3l39 -35v106
c0 8 6 15 14 15s14 -7 14 -15v-106l39 35c3 2 5 4 9 4s7 -2 10 -5h1c3 -3 4 -6 4 -10z" />
    <glyph glyph-name="ion-ios-code-working" unicode="&#xf156;" horiz-adv-x="384" 
d="M382 196c1 -1 2 -2 2 -4s-1 -3 -2 -4l-114 -109c-1 -1 -2 -2 -4 -2s-3 1 -4 2l-14 13c-1 1 -2 2 -2 4s1 3 2 4l96 92l-96 92c-1 1 -2 2 -2 4s1 3 2 4l14 13c1 1 3 2 4 2s3 -1 4 -2zM42 192l96 -92c1 -1 2 -2 2 -4s-1 -3 -2 -4l-14 -13c-1 -1 -2 -2 -4 -2c-1 0 -3 1 -4 2
l-114 109c-1 1 -2 2 -2 4s1 3 2 4l114 109c1 1 3 2 4 2s3 -1 4 -2l14 -13c1 -1 2 -2 2 -4s-1 -3 -2 -4zM170 192c0 12 10 22 22 22s22 -10 22 -22s-10 -22 -22 -22s-22 10 -22 22zM106 192c0 12 10 22 22 22s22 -10 22 -22s-10 -22 -22 -22s-22 10 -22 22zM234 192
c0 12 10 22 22 22s22 -10 22 -22s-10 -22 -22 -22s-22 10 -22 22z" />
    <glyph glyph-name="ion-ios-code" unicode="&#xf157;" horiz-adv-x="384" 
d="M268 305l114 -109c1 -1 2 -2 2 -4s-1 -3 -2 -4l-114 -109c-1 -1 -2 -2 -4 -2s-3 1 -4 2l-14 13c-1 1 -2 2 -2 4s1 3 2 4l96 92l-96 92c-1 1 -2 2 -2 4s1 3 2 4l14 13c1 1 3 2 4 2s3 -1 4 -2zM140 288c0 -2 -1 -3 -2 -4l-96 -92l96 -92c1 -1 2 -2 2 -4s-1 -3 -2 -4
l-14 -13c-1 -1 -2 -2 -4 -2c-1 0 -3 1 -4 2l-114 109c-1 1 -2 2 -2 4s1 3 2 4l114 109c1 1 3 2 4 2s3 -1 4 -2l14 -13c1 -1 2 -2 2 -4z" />
    <glyph glyph-name="ion-ios-cog" unicode="&#xf412;" 
d="M409 206c4 0 7 -4 7 -8v-12c0 -4 -3 -8 -7 -8l-26 -4c-3 -1 -7 -2 -7 -6c0 -3 0 -7 -1 -10s1 -7 4 -9l23 -12c4 -2 5 -6 4 -10l-4 -11c-1 -4 -6 -6 -10 -5l-26 5c-4 1 -6 -1 -8 -4s-3 -6 -5 -9s-1 -6 1 -9l17 -20c3 -3 3 -8 0 -11l-7 -9c-3 -3 -8 -3 -11 -1l-23 13
c-3 2 -6 1 -9 -1c-2 -2 -5 -4 -7 -6c-3 -2 -4 -6 -3 -9l10 -25c2 -4 0 -8 -4 -10l-10 -6c-4 -2 -8 0 -10 3l-17 20c-2 3 -6 4 -9 3s-5 -3 -9 -4c-3 -1 -6 -4 -6 -8l1 -26c0 -4 -3 -7 -7 -8l-12 -2c-4 -1 -8 1 -9 5l-8 25c-1 3 -4 6 -8 6c-2 0 -3 -1 -5 -1s-3 1 -5 1
c-4 0 -7 -3 -8 -6l-8 -25c-1 -4 -5 -6 -9 -5l-12 2c-4 1 -6 4 -6 8v26c0 4 -3 7 -6 8c-4 1 -7 3 -10 4s-6 0 -8 -3l-16 -20c-2 -3 -7 -5 -11 -3l-10 6c-4 2 -5 6 -3 10l9 25c1 3 0 7 -3 9c-2 2 -5 4 -7 6c-3 2 -6 3 -9 1l-23 -13c-3 -2 -8 -2 -11 1l-7 9c-3 3 -3 8 0 11
l18 20c2 3 2 6 0 9s-3 6 -5 9s-5 5 -8 4l-26 -5c-4 -1 -8 1 -9 5l-4 11c-1 4 -1 7 3 9l24 13c3 2 5 6 4 9s-2 6 -2 9c0 4 -3 6 -7 7l-26 4c-4 0 -7 4 -7 8v12c0 4 3 8 7 8l26 4c3 1 7 3 7 7c0 3 1 6 2 9s-1 7 -4 9l-24 13c-4 2 -4 6 -3 10l4 11c1 4 5 6 9 5l26 -5
c4 -1 6 1 8 4s3 5 5 8s2 7 0 10l-18 20c-3 3 -3 7 0 10l7 9c3 3 8 4 11 2l22 -14c3 -2 7 -1 10 1c2 2 5 4 7 6c3 2 4 6 3 9l-10 25c-2 4 0 8 4 10l10 6c4 2 8 1 10 -2l17 -21c3 -3 5 -4 8 -3c2 1 8 3 10 4c3 1 6 4 6 8l-1 26c0 4 3 8 7 9l12 2c4 1 8 -2 9 -6l8 -25
c1 -3 4 -5 8 -5h5h5c4 0 7 2 8 5l8 25c1 4 5 7 9 6l12 -2c4 -1 6 -5 6 -9v-26c0 -4 3 -7 6 -8c4 -1 9 -4 9 -4c4 -1 7 1 9 3l16 21c2 3 7 4 11 2l10 -6c4 -2 5 -6 3 -10l-9 -25c-1 -3 0 -7 3 -9c2 -2 5 -4 7 -6c3 -2 6 -3 9 -1l23 14c3 2 8 1 11 -2l7 -9c3 -3 3 -8 0 -11
l-18 -19c-2 -3 -2 -7 0 -10s3 -5 5 -8s5 -5 8 -4l26 5c4 1 8 -1 9 -5l4 -11c1 -4 1 -8 -3 -10l-24 -13c-3 -2 -5 -6 -4 -9s2 -6 2 -9c0 -4 3 -6 7 -7zM134 91l56 97c1 2 1 6 0 8l-56 97c-5 9 -18 10 -26 3c-27 -26 -44 -63 -44 -104s17 -78 45 -104c8 -7 20 -6 25 3z
M348 158c2 10 -6 20 -16 20h-111c-3 0 -6 -2 -7 -4l-56 -97c-5 -9 -1 -20 9 -23c13 -4 27 -6 41 -6c68 0 125 47 140 110zM332 206c10 0 18 10 16 20c-15 63 -72 110 -140 110c-14 0 -28 -2 -41 -6c-10 -3 -14 -14 -9 -23l56 -97c1 -2 4 -4 7 -4h111z" />
    <glyph glyph-name="ion-ios-color-fill" unicode="&#xf159;" horiz-adv-x="384" 
d="M167 330l172 -170c4 -4 1 -11 -5 -11v0c-10 0 -23 -1 -29 -7c-8 -8 -88 -86 -126 -123c-11 -10 -28 -10 -39 0l-131 126c-11 11 -12 29 -1 40l85 84l-50 49c-19 19 -19 49 0 68v0c9 9 22 14 34 14s25 -5 34 -14l56 -56v0zM64 338l48 -49l29 28l-50 49c-4 4 -9 6 -14 6
c-6 0 -11 -3 -15 -8c-6 -8 -5 -19 2 -26zM339 108c11 -12 45 -53 45 -76c0 -26 -22 -48 -48 -48v0c-26 0 -48 21 -48 48c0 22 35 64 45 76c2 2 4 2 6 0z" />
    <glyph glyph-name="ion-ios-color-filter" unicode="&#xf414;" horiz-adv-x="424" 
d="M398 199c17 -22 26 -49 26 -77c0 -34 -13 -65 -37 -89s-54 -37 -88 -37c-33 0 -64 12 -87 35c-24 -23 -54 -35 -87 -35s-64 13 -88 37s-37 55 -37 89c0 28 9 55 26 77c16 20 38 36 62 44c-1 6 -1 13 -1 19c0 34 12 65 36 89s55 37 89 37s65 -13 89 -37s36 -55 36 -89
c0 -6 0 -13 -1 -19c24 -8 46 -23 62 -44zM212 362c-55 0 -100 -44 -100 -100c0 -5 0 -9 1 -14h12c33 0 64 -12 87 -35c24 23 54 35 87 35h12c1 5 1 9 1 14c0 56 -45 100 -100 100zM212 161h6c-2 4 -4 7 -6 11c-2 -4 -4 -7 -6 -11h6zM165 30c11 5 22 11 31 20
c-14 21 -23 46 -23 72c0 6 1 13 2 19c-18 6 -35 16 -49 29s-25 30 -32 48c-19 -6 -36 -19 -48 -35c-14 -18 -21 -39 -21 -61c0 -56 45 -100 100 -100c14 0 27 2 40 8zM181 166c4 10 9 19 15 28c-9 9 -20 15 -31 20c-13 6 -26 9 -40 9h-5c11 -27 33 -48 61 -57zM212 72
c9 15 14 32 14 50c0 5 -1 9 -2 14h-12h-12c-1 -5 -1 -9 -1 -14c0 -18 4 -35 13 -50zM259 214c-11 -5 -22 -11 -31 -20c6 -9 11 -18 15 -28c28 9 50 30 61 57h-5c-14 0 -27 -3 -40 -9zM299 22c55 0 100 44 100 100c0 22 -7 43 -21 61c-12 16 -29 29 -48 35
c-7 -18 -18 -35 -32 -48s-31 -23 -49 -29c1 -6 2 -13 2 -19c0 -26 -9 -51 -23 -72c9 -9 20 -15 31 -20c13 -6 26 -8 40 -8z" />
    <glyph glyph-name="ion-ios-color-palette" unicode="&#xf15b;" horiz-adv-x="384" 
d="M366 100c12 -11 14 -35 0 -48c-39 -34 -94 -52 -149 -52h-1c-55 0 -111 18 -153 55c-84 74 -84 195 0 269c45 40 102 60 158 60c48 0 94 -15 128 -45c46 -41 46 -108 0 -149l-30 -27c-14 -13 -14 -31 0 -44c7 -6 11 -8 23 -10c8 -1 17 -3 24 -9zM56 232
c0 -18 14 -32 32 -32s32 14 32 32s-14 32 -32 32s-32 -14 -32 -32zM96 106c18 0 32 14 32 32s-14 32 -32 32s-32 -14 -32 -32s14 -32 32 -32zM160 267c18 0 32 14 32 32s-14 32 -32 32s-32 -14 -32 -32s14 -32 32 -32zM232 48c26 0 48 22 48 48s-22 48 -48 48
s-48 -22 -48 -48s22 -48 48 -48zM256 256c18 0 32 14 32 32s-14 32 -32 32s-32 -14 -32 -32s14 -32 32 -32z" />
    <glyph glyph-name="ion-ios-color-wand" unicode="&#xf416;" horiz-adv-x="384" 
d="M382 42c3 -3 3 -8 0 -11l-29 -29c-3 -3 -8 -3 -11 0l-245 246c-3 3 -3 8 0 11l29 29c3 3 8 3 11 0zM356 28c3 3 3 8 0 11l-190 191c-3 3 -8 3 -11 0v0c-3 -3 -3 -9 0 -12l190 -190c3 -3 8 -3 11 0v0zM129 328c-7 0 -12 5 -12 12v32c0 7 5 12 12 12s12 -5 12 -12v-32
c0 -7 -5 -12 -12 -12zM129 185c7 0 12 -5 12 -12v-32c0 -7 -5 -12 -12 -12s-12 5 -12 12v32c0 7 5 12 12 12zM207 258c0 7 5 12 12 12h32c7 0 12 -5 12 -12s-5 -12 -12 -12h-32c-7 0 -12 5 -12 12zM56 258c0 -7 -6 -12 -12 -12h-32c-7 0 -12 5 -12 12s5 12 12 12h32
c7 0 12 -5 12 -12zM61 307l-21 21c-5 5 -5 12 0 17c2 2 5 3 8 3s7 -1 9 -3l21 -21c5 -5 5 -12 0 -17c-2 -2 -6 -3 -9 -3s-6 1 -8 3zM69 208c3 0 7 -1 9 -3c5 -5 5 -12 0 -17l-21 -21c-2 -2 -6 -4 -9 -4s-6 2 -8 4s-4 5 -4 8s2 7 4 9l21 21c2 2 5 3 8 3v0zM188 304
c-3 0 -6 1 -8 3s-4 6 -4 9s2 6 4 8l21 21c2 2 5 3 8 3s7 -1 9 -3c5 -5 5 -12 0 -17l-21 -21c-2 -2 -6 -3 -9 -3z" />
    <glyph glyph-name="ion-ios-compass" unicode="&#xf15d;" 
d="M232 168c1 -1 1 -3 0 -4l-98 -49c-2 -1 -4 1 -3 3l49 98c1 1 3 1 4 0zM208 400c115 0 208 -93 208 -208s-93 -208 -208 -208s-208 93 -208 208s93 208 208 208zM249 151v0l81 160c1 2 -1 4 -3 3l-159 -81h-1l-81 -160c-1 -2 1 -4 3 -3z" />
    <glyph glyph-name="ion-ios-construct" unicode="&#xf15f;" horiz-adv-x="480" 
d="M364 384v0v0zM259 390c6 -4 18 -12 10 -12c0 0 -35 6 -60 -15c-18 -16 -30 -31 -31 -53s7 -34 35 -62l5 3c1 1 3 1 4 1c2 0 6 -1 7 -2c0 0 -5 5 14 -14l-50 -47c-18 18 -13 13 -13 13c-2 2 -3 6 -1 10l4 7c-25 25 -39 37 -51 40c-4 1 -8 2 -12 2c-10 0 -17 -3 -21 -7
s-12 -16 -5 -23l12 -12c2 -2 2 -6 0 -8l-33 -35c-1 -1 -3 -1 -4 -1s-3 0 -4 1l-63 64c-2 2 -2 5 0 7l34 34c1 1 3 2 4 2c0 0 16 -8 24 0s0 20 6 29s16 19 23 26s35 34 81 53c16 7 33 9 47 9c15 0 29 -4 38 -10zM446 48c2 -2 2 -6 0 -8l-55 -54c-1 -1 -3 -2 -4 -2s-3 1 -4 2
c0 0 -56 66 -114 127l47 51c61 -58 130 -116 130 -116zM463 323c13 -13 18 -29 17 -41s-6 -36 -30 -60c-17 -17 -45 -30 -72 -30c-11 0 -22 3 -32 8c-2 1 -6 2 -9 2s-7 -1 -11 -5c-2 -2 -9 -10 -21 -22c-3 -4 -7 -8 -11 -12c-8 -8 -17 -17 -26 -27c-4 -4 -7 -8 -11 -12
c-54 -57 -119 -127 -119 -127c-8 -9 -18 -13 -29 -13s-24 5 -32 13c-17 17 -18 45 0 61c0 0 70 65 127 119c4 4 8 7 12 11c10 9 19 18 27 26c4 4 7 8 11 11c13 12 21 20 23 21c7 8 5 15 3 20c-19 44 2 83 22 104c21 22 48 29 60 30h2c12 0 28 -6 39 -17l-53 -53l10 -51
l51 -9zM121 22c5 5 5 14 0 20c-5 5 -13 5 -19 0c-5 -5 -5 -14 0 -20c5 -5 13 -5 19 0z" />
    <glyph glyph-name="ion-ios-contact" unicode="&#xf41a;" 
d="M208 400c115 0 208 -93 208 -208s-93 -208 -208 -208v0v0c-108 0 -196 81 -207 186c-1 7 -1 15 -1 22s0 15 1 22c11 105 99 186 207 186v0v0zM344 74c29 33 44 74 44 118c0 48 -19 93 -53 127s-79 53 -127 53s-93 -19 -127 -53s-53 -79 -53 -127c0 -44 15 -85 44 -118
c21 8 56 21 80 28c2 1 3 0 3 10c0 11 -1 18 -4 24c-4 8 -7 20 -9 31c-4 5 -10 15 -14 33c-3 16 -1 22 1 28v2c1 4 0 23 -3 38c-2 10 1 34 15 52c9 12 27 26 58 28h18c32 -2 49 -16 58 -28c14 -18 17 -42 15 -52c-3 -15 -4 -34 -3 -38c0 0 1 -1 1 -2c2 -6 3 -12 0 -28
c-4 -18 -10 -27 -14 -32c-2 -11 -5 -24 -9 -32c-3 -7 -6 -15 -6 -23c0 -10 0 -10 2 -11c23 -7 60 -19 83 -28z" />
    <glyph glyph-name="ion-ios-contacts" unicode="&#xf161;" 
d="M208 400c115 0 208 -93 208 -208s-93 -208 -208 -208s-208 93 -208 208s93 208 208 208zM351 136c9 -3 17 -8 23 -15c10 22 14 46 14 71c0 49 -19 94 -54 128c-34 33 -80 52 -128 52c-47 0 -91 -19 -125 -52c-34 -34 -53 -80 -53 -128c0 -33 9 -64 25 -92
c13 7 27 8 42 11c7 1 23 5 25 13s2 15 2 23c0 3 -1 3 -3 5c-4 4 -6 9 -8 14c-2 8 -3 16 -4 24c-9 -2 -10 16 -12 21c-1 4 -2 19 4 22c-3 5 -4 12 -5 18c-2 13 -2 26 3 39c10 26 36 39 63 38c26 -1 52 -15 60 -41c4 -12 3 -27 1 -40c-1 -5 -3 -10 -5 -14c8 -3 4 -21 3 -24
c-2 -5 -2 -21 -11 -19c-1 -10 -2 -22 -7 -31c-1 -2 -8 -8 -8 -10v-11c0 -5 0 -10 2 -15s10 -7 14 -8c14 -5 28 -5 42 -10c28 -10 45 -35 45 -65v0c0 -2 3 -3 5 -2s3 2 5 3c4 3 6 8 6 12c-2 17 -7 31 -20 44c-20 19 -46 25 -46 25c-3 1 -8 2 -12 3s-4 6 0 8c8 3 13 5 16 6
c4 1 15 4 16 9v14c-21 2 -29 6 -29 6c-6 3 -2 6 0 11c14 32 -10 88 32 105c7 3 15 4 25 4c12 0 23 -2 31 -7c15 -9 20 -27 20 -44c0 -20 -4 -44 7 -62c2 -3 4 -4 0 -6c0 0 -6 -5 -31 -6c0 0 -2 -13 1 -17c6 -7 21 -7 29 -10z" />
    <glyph glyph-name="ion-ios-contract" unicode="&#xf162;" horiz-adv-x="384" 
d="M120 243l-116 117c-5 5 -5 15 0 20c3 3 6 4 10 4s7 -1 10 -4l117 -116v77c0 8 6 14 14 14v0c8 0 14 -6 14 -14v-112c0 -8 -6 -14 -14 -14h-112c-8 0 -14 6 -14 14v0c0 8 6 14 14 14h77zM229 215c-8 0 -14 6 -14 14v112c0 8 6 14 14 14v0c8 0 14 -6 14 -14v-77l117 116
c3 3 6 4 10 4s7 -1 10 -4c5 -5 5 -15 0 -20l-116 -117h77c8 0 14 -6 14 -14v0c0 -8 -6 -14 -14 -14h-112zM14 0c-4 0 -7 1 -10 4c-5 5 -5 15 0 20l116 117h-77c-8 0 -14 6 -14 14v0c0 8 6 14 14 14h112c8 0 14 -6 14 -14v-112c0 -8 -6 -14 -14 -14v0c-8 0 -14 6 -14 14v77
l-117 -116c-3 -3 -6 -4 -10 -4zM229 29c-8 0 -14 6 -14 14v112c0 8 6 14 14 14h112c8 0 14 -6 14 -14v0c0 -8 -6 -14 -14 -14h-77l116 -117c5 -5 5 -15 0 -20c-3 -3 -6 -4 -10 -4s-7 1 -10 4l-117 116v-77c0 -8 -6 -14 -14 -14v0z" />
    <glyph glyph-name="ion-ios-contrast" unicode="&#xf163;" 
d="M208 400c115 0 208 -93 208 -208s-93 -208 -208 -208s-208 93 -208 208s93 208 208 208zM335 65c34 34 53 79 53 127s-19 93 -53 127s-79 53 -127 53v-360c48 0 93 19 127 53z" />
    <glyph glyph-name="ion-ios-copy" unicode="&#xf41c;" horiz-adv-x="384" 
d="M288 333c-10 0 -19 9 -19 19v72c0 4 3 8 7 8v0c6 0 16 -4 21 -8l77 -64c6 -5 10 -13 10 -21v0c0 -3 -3 -6 -6 -6h-90zM243 352c0 -25 20 -45 45 -45h96v-243c0 -18 -14 -32 -32 -32h-240c-18 0 -32 14 -32 32v336c0 18 14 32 32 32h131v-80zM52 36c0 -18 14 -32 32 -32
h236v-20c0 -18 -14 -32 -32 -32h-256c-18 0 -32 14 -32 32v352c0 18 14 32 32 32h20v-332z" />
    <glyph glyph-name="ion-ios-create" unicode="&#xf165;" horiz-adv-x="448" 
d="M372 362c3 3 9 3 12 0l26 -26c3 -3 3 -9 0 -12l-202 -202c-2 -2 -4 -2 -6 -2h-26c-4 0 -8 4 -8 8v26c0 2 0 4 2 6zM444 381c3 -3 4 -8 4 -12s-1 -8 -4 -11l-12 -12c-2 -2 -3 -2 -5 0l-22 22l-10 10c-2 2 -2 4 0 6l11 12c3 3 8 4 12 4s8 -1 11 -4v-1zM218 106l1 1l148 147
c2 2 6 2 6 -2v-209c0 -32 -26 -59 -58 -59h-256c-32 0 -59 27 -59 59v224c0 32 27 58 59 58h241c4 0 4 -5 2 -7l-147 -147l-1 -1c-3 -3 -5 -7 -5 -11v-1v-38v-3c0 -9 7 -16 16 -16h3h38h1c4 0 8 2 11 5z" />
    <glyph glyph-name="ion-ios-crop" unicode="&#xf41e;" horiz-adv-x="384" 
d="M78 384c8 0 14 -6 14 -14v-20c0 -8 -6 -14 -14 -14v0c-8 0 -14 6 -14 14v20c0 8 6 14 14 14v0zM92 106c0 -8 6 -14 14 -14h152c8 0 14 -6 14 -14v0c0 -8 -6 -14 -14 -14h-166c-16 0 -28 12 -28 28v166c0 8 6 14 14 14v0c8 0 14 -6 14 -14v-152zM370 92c8 0 14 -6 14 -14
v0c0 -8 -6 -14 -14 -14h-20c-8 0 -14 6 -14 14v0c0 8 6 14 14 14h20zM0 306c0 8 6 14 14 14h278c16 0 28 -12 28 -28v-278c0 -8 -6 -14 -14 -14v0c-8 0 -14 6 -14 14v264c0 8 -6 14 -14 14h-264c-8 0 -14 6 -14 14v0z" />
    <glyph glyph-name="ion-ios-cube" unicode="&#xf168;" 
d="M393 318c6 -3 6 -11 0 -14l-179 -94c-4 -2 -8 -2 -12 0l-179 94c-6 3 -6 11 0 14l179 81c4 2 8 2 12 0zM232 -15c-5 -3 -11 1 -11 7v187c0 3 1 6 4 7l180 93c5 3 11 -1 11 -7v-185c0 -3 -2 -6 -4 -7zM0 272c0 6 6 10 11 7l180 -93c3 -1 4 -4 4 -7v-187
c0 -6 -6 -10 -11 -7l-180 95c-2 1 -4 4 -4 7v185z" />
    <glyph glyph-name="ion-ios-cut" unicode="&#xf16a;" horiz-adv-x="360" 
d="M232 171c-25 -33 -38 -42 -38 -42l-14 -9c-7 -4 -20 -14 -29 -28c-14 -23 -25 -55 -26 -58c-4 -14 -12 -26 -22 -35c-11 -10 -25 -15 -39 -15c-17 0 -34 8 -46 22c-12 13 -18 31 -18 49s6 36 18 49c12 14 28 22 46 22c12 0 24 -4 34 -11l10 20c3 7 7 15 11 22
c2 4 5 9 9 15c3 5 6 9 9 14c8 12 15 22 15 23v0l15 20v0l3 4l10 13l114 154c6 0 15 -2 20 -7c12 -11 19 -23 19 -41c0 -13 -4 -28 -11 -46c-10 -24 -64 -102 -90 -135zM64 27c13 0 24 12 24 28c0 15 -11 28 -24 28s-24 -13 -24 -28s11 -28 24 -28zM180 160c9 0 16 7 16 16
s-7 16 -16 16s-16 -7 -16 -16s7 -16 16 -16zM116 188c-35 48 -69 97 -78 118c-7 18 -11 32 -11 46c0 18 7 35 19 44c4 3 10 4 19 4l105 -141l-47 -65c-2 -3 -3 -6 -5 -9c-1 1 -1 2 -2 3zM296 126c35 0 64 -32 64 -71s-29 -71 -64 -71c-14 0 -28 5 -39 15
c-10 9 -18 21 -22 35c-1 3 -12 35 -26 58c-5 7 -10 12 -15 17l36 33l11 14c4 -7 7 -14 10 -21c4 -8 8 -14 11 -20c10 7 22 11 34 11zM296 27c13 0 24 12 24 28c0 15 -11 28 -24 28s-24 -13 -24 -28s11 -28 24 -28z" />
    <glyph glyph-name="ion-ios-desktop" unicode="&#xf16c;" horiz-adv-x="448" 
d="M320 6c0 -3 -2 -6 -5 -6h-182c-3 0 -5 3 -5 6c0 2 2 4 4 4l22 2c12 3 21 16 23 28l1 8h92l1 -8c2 -12 11 -25 23 -28l22 -2c2 0 4 -2 4 -4zM441 377c4 -4 7 -11 7 -17v-272c0 -6 -3 -13 -7 -17s-11 -7 -17 -7h-400c-6 0 -13 3 -17 7s-7 11 -7 17v272c0 6 3 13 7 17
s11 7 17 7h400c6 0 13 -3 17 -7zM224 88c4 0 8 4 8 8s-4 8 -8 8s-8 -4 -8 -8s4 -8 8 -8zM428 128c2 0 4 2 4 4v224c0 7 -5 12 -12 12h-392c-7 0 -12 -5 -12 -12v-224c0 -2 2 -4 4 -4h408z" />
    <glyph glyph-name="ion-ios-disc" unicode="&#xf16e;" 
d="M208 282c50 0 90 -40 90 -90s-40 -90 -90 -90s-90 40 -90 90s40 90 90 90zM208 152c22 0 40 18 40 40s-18 40 -40 40s-40 -18 -40 -40s18 -40 40 -40zM208 400c115 0 208 -93 208 -208s-93 -208 -208 -208s-208 93 -208 208s93 208 208 208zM208 78c63 0 114 51 114 114
s-51 114 -114 114s-114 -51 -114 -114s51 -114 114 -114z" />
    <glyph glyph-name="ion-ios-document" unicode="&#xf170;" horiz-adv-x="304" 
d="M208 293c-10 0 -19 9 -19 19v72c0 4 3 8 7 8v0c8 0 15 -3 21 -8l76 -63c7 -6 11 -14 11 -23v0c0 -3 -2 -5 -5 -5h-91zM163 312c0 -25 20 -45 45 -45h96v-243c0 -18 -14 -32 -32 -32h-240c-18 0 -32 14 -32 32v336c0 18 14 32 32 32h131v-80z" />
    <glyph glyph-name="ion-ios-done-all" unicode="&#xf171;" horiz-adv-x="320" 
d="M222 238l-67 -69l-26 27l66 69c1 1 3 2 4 2v0c1 0 2 -1 3 -2l20 -21c2 -2 2 -4 0 -6zM28 195l76 -79l-13 -14v0c-2 -2 -7 -6 -13 -6c-4 0 -9 3 -13 7l-64 65c-2 2 -2 4 0 6l20 21c1 1 3 1 4 1s2 0 3 -1zM319 266c2 -2 2 -5 0 -7l-151 -156v0c-2 -2 -7 -6 -13 -6
c-4 0 -10 2 -14 6l-63 65c-2 2 -2 5 0 7l20 21c1 1 2 1 3 1s3 0 4 -1l50 -52l138 143c1 1 2 1 3 1v0c1 0 2 0 3 -1z" />
    <glyph glyph-name="ion-ios-download" unicode="&#xf420;" horiz-adv-x="320" 
d="M280 304c22 0 40 -18 40 -40v-240c0 -22 -18 -40 -40 -40h-240c-22 0 -40 18 -40 40v240c0 22 18 40 40 40h107v-180l-48 47c-5 5 -13 5 -18 0s-5 -13 0 -18l70 -69v0c1 -1 2 -2 4 -3s3 -1 5 -1c3 0 7 2 9 4l70 69c5 5 5 13 0 18s-13 5 -18 0l-48 -47v180h107zM173 387
v-83h-26v83c0 7 6 13 13 13s13 -6 13 -13z" />
    <glyph glyph-name="ion-ios-easel" unicode="&#xf173;" horiz-adv-x="448" 
d="M402 -14c2 -4 1 -8 -1 -12s-7 -6 -11 -6h-1c-6 0 -11 3 -13 8l-26 70c-2 4 0 8 2 12s7 6 11 6c5 0 10 -3 12 -8zM86 64c4 0 9 -2 11 -6c3 -4 3 -8 1 -12l-26 -70c-2 -5 -6 -8 -12 -8h-1c-4 0 -9 2 -11 6s-3 8 -1 12l26 70c2 5 7 8 13 8zM225 64c7 0 13 -6 13 -13v-37
c0 -7 -6 -14 -13 -14h-1c-7 0 -14 7 -14 14v37c0 7 7 13 14 13h1zM392 320c4 0 8 -4 8 -8v-176c0 -4 -4 -8 -8 -8h-336c-4 0 -8 4 -8 8v176c0 4 4 8 8 8h336zM416 368c18 0 32 -14 32 -32v-224c0 -18 -14 -32 -32 -32h-384c-18 0 -32 14 -32 32v224c0 18 14 32 32 32h384z
M420 124v0v205c0 3 -1 6 -3 8v0c-2 2 -5 3 -8 3h-365c-9 0 -16 -7 -16 -16v-200c0 -9 7 -16 16 -16h360c9 0 16 7 16 16zM224 416c13 0 24 -13 24 -26h-48c0 13 11 26 24 26z" />
    <glyph glyph-name="ion-ios-egg" unicode="&#xf175;" horiz-adv-x="320" 
d="M160 416v0c64 0 160 -133 160 -257s-64 -191 -160 -191s-160 67 -160 191s96 257 160 257z" />
    <glyph glyph-name="ion-ios-exit" unicode="&#xf177;" 
d="M96 312c0 22 18 40 40 40h240c22 0 40 -18 40 -40v-240c0 -22 -18 -40 -40 -40h-240c-22 0 -40 18 -40 40v107h180l-47 -48c-5 -5 -5 -13 0 -18s13 -5 18 0l69 70v0c1 1 2 2 3 4s1 3 1 5c0 3 -2 7 -4 9l-69 70c-5 5 -13 5 -18 0s-5 -13 0 -18l47 -48h-180v107zM13 205h83
v-26h-83c-7 0 -13 6 -13 13s6 13 13 13z" />
    <glyph glyph-name="ion-ios-expand" unicode="&#xf178;" horiz-adv-x="384" 
d="M48 356l117 -117c5 -5 5 -15 0 -20c-3 -3 -6 -4 -10 -4s-7 1 -10 4l-117 117v-78c0 -8 -6 -14 -14 -14v0c-8 0 -14 6 -14 14v112c0 8 6 14 14 14h112c8 0 14 -6 14 -14v0c0 -8 -6 -14 -14 -14h-78zM370 384c8 0 14 -6 14 -14v-112c0 -8 -6 -14 -14 -14v0
c-8 0 -14 6 -14 14v78l-117 -117c-3 -3 -6 -4 -10 -4s-7 1 -10 4c-5 5 -5 15 0 20l117 117h-78c-8 0 -14 6 -14 14v0c0 8 6 14 14 14h112zM155 169c4 0 7 -1 10 -4c5 -5 5 -15 0 -20l-117 -117h78c8 0 14 -6 14 -14v0c0 -8 -6 -14 -14 -14h-112c-8 0 -14 6 -14 14v112
c0 8 6 14 14 14v0c8 0 14 -6 14 -14v-78l117 117c3 3 6 4 10 4zM370 140c8 0 14 -6 14 -14v-112c0 -8 -6 -14 -14 -14h-112c-8 0 -14 6 -14 14v0c0 8 6 14 14 14h78l-117 117c-5 5 -5 15 0 20c3 3 6 4 10 4s7 -1 10 -4l117 -117v78c0 8 6 14 14 14v0z" />
    <glyph glyph-name="ion-ios-eye-off" unicode="&#xf17a;" horiz-adv-x="448" 
d="M56 380l356 -356c6 -6 6 -14 0 -20c-2 -2 -5 -3 -7 -4c-5 -1 -9 0 -13 4l-356 356c-6 6 -6 14 0 20s14 6 20 0zM228 102c12 1 24 4 35 9l43 -44c-25 -12 -52 -19 -82 -19c-98 0 -155 61 -220 133c-6 6 -6 16 0 22c30 32 57 60 85 81l54 -54c-5 -10 -8 -22 -9 -34
c-2 -53 41 -96 94 -94zM444 182c-24 -26 -52 -57 -85 -82l-54 54c5 10 8 22 9 34c2 53 -41 96 -94 94c-12 0 -25 -4 -35 -9l-43 44c26 12 53 19 82 19c96 0 168 -69 220 -133c5 -6 5 -15 0 -21zM160 187c-1 8 1 17 3 24l79 -80c-7 -2 -15 -4 -23 -3c-31 2 -57 28 -59 59z
M288 192c0 -6 -1 -13 -3 -19l-18 19h3c6 0 12 2 18 4v-4zM224 239v-5l-19 19c6 2 13 3 19 3h3c-2 -5 -3 -11 -3 -17z" />
    <glyph glyph-name="ion-ios-eye" unicode="&#xf425;" horiz-adv-x="448" 
d="M224 336c96 0 168 -69 220 -133c5 -6 5 -15 0 -21c-51 -56 -124 -134 -220 -134c-98 0 -155 61 -220 133c-6 6 -6 16 0 22c76 83 140 133 220 133zM228 102c46 2 84 40 86 86c2 53 -41 96 -94 94c-46 -2 -84 -40 -86 -86c-2 -53 41 -96 94 -94zM224 239
c0 -26 21 -47 46 -47c6 0 12 2 18 4v-4c0 -37 -31 -67 -69 -64c-31 2 -57 28 -59 59c-3 38 27 69 64 69h3c-2 -5 -3 -11 -3 -17z" />
    <glyph glyph-name="ion-ios-fastforward" unicode="&#xf427;" horiz-adv-x="448" 
d="M444 199c5 -3 5 -11 0 -14l-208 -120c-5 -3 -12 1 -12 7v115l-212 -122c-5 -3 -12 1 -12 7v240c0 6 7 10 12 7l212 -122v115c0 6 7 10 12 7z" />
    <glyph glyph-name="ion-ios-female" unicode="&#xf17b;" 
d="M14 -16c-4 0 -7 1 -10 4c-5 5 -5 14 0 19l45 45l-37 37c-5 5 -5 14 0 19c2 3 5 4 9 4s7 -1 10 -4l37 -37l50 50c-26 31 -40 70 -40 110c0 23 4 45 13 66c8 20 20 37 36 53s34 29 54 37c21 9 43 13 66 13s45 -4 66 -13c20 -8 37 -21 53 -37s29 -33 37 -53
c9 -21 13 -43 13 -66s-4 -45 -13 -66c-8 -20 -21 -38 -37 -54s-33 -28 -53 -36c-21 -9 -43 -13 -66 -13c-40 0 -79 14 -110 40l-50 -50l37 -37c5 -5 5 -14 0 -19c-2 -3 -5 -4 -9 -4s-7 1 -10 4l-37 37l-45 -45c-2 -3 -5 -4 -9 -4zM146 331c-27 -27 -41 -62 -41 -100
s15 -73 42 -100s62 -42 100 -42s73 15 100 42s42 62 42 100s-15 73 -42 100s-62 42 -100 42s-74 -15 -101 -42z" />
    <glyph glyph-name="ion-ios-filing" unicode="&#xf429;" 
d="M376 384c22 0 40 -18 40 -40v-304c0 -22 -18 -40 -40 -40h-336c-22 0 -40 18 -40 40v304c0 22 18 40 40 40h336zM388 208v132c0 9 -7 16 -16 16h-328c-9 0 -16 -7 -16 -16v-132c0 -9 7 -16 16 -16h87c7 0 13 -5 15 -11c4 -12 14 -21 26 -21h72c12 0 22 9 26 21
c2 6 8 11 15 11h87c9 0 16 7 16 16zM338 292h-260c-8 0 -14 6 -14 14v0c0 8 6 14 14 14h260c8 0 14 -6 14 -14v0c0 -8 -6 -14 -14 -14zM338 228h-260c-8 0 -14 6 -14 14v0c0 8 6 14 14 14h260c8 0 14 -6 14 -14v0c0 -8 -6 -14 -14 -14z" />
    <glyph glyph-name="ion-ios-film" unicode="&#xf42b;" horiz-adv-x="448" 
d="M416 368c18 0 32 -14 32 -32v-288c0 -18 -14 -32 -32 -32h-384c-18 0 -32 14 -32 32v288c0 18 14 32 32 32h384zM88 48v48c0 4 -4 8 -8 8h-48c-4 0 -8 -4 -8 -8v-48c0 -4 4 -8 8 -8h48c4 0 8 4 8 8zM88 128v48c0 4 -4 8 -8 8h-48c-4 0 -8 -4 -8 -8v-48c0 -4 4 -8 8 -8h48
c4 0 8 4 8 8zM88 208v48c0 4 -4 8 -8 8h-48c-4 0 -8 -4 -8 -8v-48c0 -4 4 -8 8 -8h48c4 0 8 4 8 8zM88 288v48c0 4 -4 8 -8 8h-48c-4 0 -8 -4 -8 -8v-48c0 -4 4 -8 8 -8h48c4 0 8 4 8 8zM320 180c7 0 12 5 12 12s-5 12 -12 12h-192c-7 0 -12 -5 -12 -12s5 -12 12 -12h192z
M424 48v48c0 4 -4 8 -8 8h-48c-4 0 -8 -4 -8 -8v-48c0 -4 4 -8 8 -8h48c4 0 8 4 8 8zM424 128v48c0 4 -4 8 -8 8h-48c-4 0 -8 -4 -8 -8v-48c0 -4 4 -8 8 -8h48c4 0 8 4 8 8zM424 208v48c0 4 -4 8 -8 8h-48c-4 0 -8 -4 -8 -8v-48c0 -4 4 -8 8 -8h48c4 0 8 4 8 8zM424 288v48
c0 4 -4 8 -8 8h-48c-4 0 -8 -4 -8 -8v-48c0 -4 4 -8 8 -8h48c4 0 8 4 8 8z" />
    <glyph glyph-name="ion-ios-finger-print" unicode="&#xf17c;" 
d="M403 266c8 -24 13 -50 13 -73v-11c0 -7 -7 -13 -14 -13v0c-4 0 -8 1 -10 4s-4 6 -4 10c0 2 1 7 1 10c0 20 -5 42 -12 63s-17 38 -27 48c-5 5 -5 15 0 20c3 3 6 4 10 4v0c4 0 7 -1 10 -4c13 -13 24 -34 33 -58zM95 337c-4 0 -9 2 -11 6c-2 3 -3 6 -2 10s2 7 5 9
c35 25 76 38 121 38c47 0 92 -17 131 -49c6 -5 7 -13 2 -19c-3 -3 -7 -5 -11 -5c-3 0 -6 1 -8 3c-34 28 -73 43 -114 43c-39 0 -75 -12 -105 -33c-2 -2 -5 -3 -8 -3zM27 193c0 -30 6 -53 15 -82c1 -4 1 -8 -1 -11s-5 -5 -9 -6c-1 0 -3 -1 -4 -1c-6 0 -11 4 -13 10
c-10 31 -15 57 -15 90c0 50 18 99 51 137c3 3 7 4 11 4v0c3 0 6 -1 8 -3c3 -2 5 -5 5 -9s-1 -7 -3 -10c-29 -33 -45 -75 -45 -119zM308 318c26 -23 46 -55 57 -94c12 -43 16 -96 10 -155c-1 -7 -7 -12 -14 -12h-1c-8 1 -13 7 -12 15c5 55 2 106 -9 145c-10 34 -27 62 -49 81
s-50 29 -79 29c-40 0 -76 -14 -101 -41c-23 -25 -36 -59 -33 -95c2 -31 6 -48 9 -63c5 -23 9 -42 6 -92c0 -7 -7 -13 -14 -13c-1 0 -3 1 -4 1c-6 2 -10 7 -10 14c3 46 -1 64 -5 85c-3 16 -7 33 -9 66c-3 43 11 84 40 115c30 32 73 50 121 50c36 0 70 -12 97 -36zM326 180
c5 -31 7 -56 7 -77c0 -42 -5 -76 -5 -77c-1 -7 -7 -12 -14 -12h-2c-4 1 -7 3 -9 6s-3 6 -2 10c0 0 4 33 4 73c0 20 -2 43 -7 73c-5 31 -16 57 -32 75c-16 17 -36 26 -58 26c-15 0 -29 -3 -42 -9c-2 -1 -4 -1 -6 -1c-4 0 -8 2 -11 5s-4 8 -3 12s4 7 8 9c16 8 35 12 54 12
c30 0 56 -12 77 -34s35 -53 41 -91zM137 244c-11 -16 -14 -35 -10 -59c9 -54 18 -116 10 -174c-1 -7 -7 -12 -14 -12h-1c-4 0 -7 2 -9 5s-3 7 -3 11c8 54 -1 114 -10 165c-5 31 0 58 15 80c3 4 7 6 11 6c3 0 7 -1 9 -3c5 -5 6 -13 2 -19zM270 60c7 0 13 -5 13 -13
c0 -1 1 -21 -3 -41c-1 -6 -6 -11 -13 -11h-5c-6 2 -10 9 -9 16c3 17 3 35 3 35c0 8 5 14 13 14h1zM247 242c11 -10 19 -26 24 -44c8 -28 11 -67 12 -114c0 -4 -2 -7 -4 -10c-3 -3 -5 -4 -9 -4v0c-8 0 -14 7 -14 14c-1 45 -5 82 -12 108c-3 12 -13 39 -38 39
c-11 0 -20 -4 -26 -11c-6 -8 -9 -21 -6 -37c13 -65 16 -127 9 -184c-1 -7 -7 -12 -14 -12h-1c-7 1 -13 7 -12 15c7 54 4 114 -8 176c-6 31 2 50 10 60c11 13 28 20 48 20c15 0 30 -6 41 -16zM217 202c8 -19 14 -51 16 -90c3 -39 2 -80 -2 -116c-1 -7 -6 -12 -13 -12h-2
c-4 0 -7 2 -9 5s-3 6 -3 10c4 33 4 73 2 110s-7 67 -14 83c-3 7 0 15 7 18c2 1 3 1 5 1v0c6 0 11 -4 13 -9z" />
    <glyph glyph-name="ion-ios-fitness" unicode="&#xf1ab;" horiz-adv-x="448" 
d="M320 168h-192c-4 0 -8 4 -8 8v32c0 4 4 8 8 8h192c4 0 8 -4 8 -8v-32c0 -4 -4 -8 -8 -8zM346 86v212c0 12 10 22 22 22v0c12 0 22 -10 22 -22v-212c0 -12 -10 -22 -22 -22v0c-12 0 -22 10 -22 22zM428 256c11 0 20 -9 20 -20v-88c0 -11 -9 -20 -20 -20h-12
c-4 0 -8 4 -8 8v112c0 4 4 8 8 8h12zM102 86c0 -12 -10 -22 -22 -22v0c-12 0 -22 10 -22 22v212c0 12 10 22 22 22v0c12 0 22 -10 22 -22v-212zM32 256c4 0 8 -4 8 -8v-112c0 -4 -4 -8 -8 -8h-12c-11 0 -20 9 -20 20v88c0 11 9 20 20 20h12z" />
    <glyph glyph-name="ion-ios-flag" unicode="&#xf42d;" horiz-adv-x="320" 
d="M311 367c5 1 9 -3 9 -8v-191c0 -4 -3 -7 -7 -8c0 0 -37 -7 -72 -7s-57 6 -83 12s-51 15 -77 15c-21 0 -37 -2 -47 -4c-4 -1 -6 -4 -6 -8v-154c0 -8 -8 -15 -16 -14c-7 1 -12 7 -12 14v354l4 3c2 1 21 13 77 13c28 0 55 -5 81 -11c25 -5 50 -12 78 -12c18 0 48 3 61 5
c4 0 7 1 10 1z" />
    <glyph glyph-name="ion-ios-flame" unicode="&#xf42f;" horiz-adv-x="288" 
d="M108 400c98 -59 187 -161 180 -267c-8 -125 -117 -149 -143 -149s-144 38 -145 149c-1 136 137 132 108 267zM182 45c2 6 3 12 3 18c0 41 -41 88 -41 88s-40 -47 -40 -88c0 -6 0 -12 2 -18c10 -39 66 -39 76 0z" />
    <glyph glyph-name="ion-ios-flash-off" unicode="&#xf12f;" horiz-adv-x="256" 
d="M254 5c4 -7 2 -15 -5 -19c-2 -1 -5 -2 -7 -2c-5 0 -9 3 -12 7l-228 388c-4 7 -2 15 5 19s16 2 20 -5zM197 135l-53 89h104c6 0 11 -8 7 -14zM192 411l-51 -182l-42 72l86 113c3 4 8 1 7 -3zM59 249l53 -89h-104c-6 0 -10 8 -6 14zM64 -27l51 182l42 -72l-86 -113
c-3 -4 -8 -1 -7 3z" />
    <glyph glyph-name="ion-ios-flash" unicode="&#xf17e;" horiz-adv-x="256" 
d="M248 224c6 0 11 -8 7 -14l-184 -240c-3 -4 -8 -1 -7 3l52 187h-108c-6 0 -10 7 -6 13l183 241c3 4 8 1 7 -3l-52 -187h108z" />
    <glyph glyph-name="ion-ios-flashlight" unicode="&#xf141;" horiz-adv-x="170" 
d="M146 416c18 0 24 -14 24 -32h-170c0 18 6 32 24 32h122zM25 300c-16 18 -25 33 -25 68h170c0 -33 -10 -50 -25 -68c-8 -9 -12 -19 -12 -31v-266c0 -22 -18 -35 -40 -35h-16c-22 0 -40 13 -40 35v266c0 12 -4 22 -12 31zM57 210v-36c0 -16 13 -28 28 -28s28 12 28 28v36
c0 16 -13 28 -28 28s-28 -12 -28 -28zM65 175c0 11 9 20 20 20s20 -9 20 -20s-9 -20 -20 -20s-20 9 -20 20z" />
    <glyph glyph-name="ion-ios-flask" unicode="&#xf431;" horiz-adv-x="385" 
d="M374 94c8 -16 11 -32 11 -46c-1 -36 -27 -64 -63 -64h-257c-36 0 -64 28 -65 64c0 14 4 30 12 46l116 194v2v78c0 2 -2 4 -4 4c-7 0 -12 5 -12 12v4c0 7 5 12 12 12h137c7 0 12 -5 12 -12v-4c0 -7 -5 -12 -12 -12c-2 0 -4 -2 -4 -4v-78v-2zM98 160h189c6 0 10 7 7 12
l-61 102c-3 5 -4 10 -4 16v78v4h-73v-4v-78c0 -6 -1 -11 -4 -16l-61 -102c-3 -5 1 -12 7 -12z" />
    <glyph glyph-name="ion-ios-flower" unicode="&#xf433;" 
d="M337 218c52 0 79 -11 79 -26s-27 -26 -79 -26c-27 0 -60 6 -86 13c-1 -3 -2 -6 -4 -9c23 -14 52 -32 71 -51c37 -37 48 -63 37 -74c-3 -2 -6 -4 -10 -4c-14 0 -36 13 -64 41c-19 19 -37 48 -51 71c-3 -2 -7 -3 -10 -4c7 -26 14 -59 14 -86c0 -52 -11 -79 -26 -79
s-26 27 -26 79c0 27 7 60 14 86c-3 1 -6 2 -9 4c-14 -23 -33 -52 -52 -71c-28 -28 -50 -41 -64 -41c-4 0 -7 1 -10 4c-11 11 0 37 37 74c19 19 48 37 71 51c-2 3 -3 6 -4 9c-26 -7 -59 -13 -86 -13c-52 0 -79 11 -79 26s27 26 79 26c27 0 60 -7 86 -14c1 3 2 6 4 9
c-23 14 -52 33 -71 52c-37 37 -48 63 -37 74c3 2 6 4 10 4c14 0 36 -13 64 -41c19 -19 37 -48 51 -71c3 2 6 3 9 4c-7 26 -13 59 -13 86c0 52 11 79 26 79s26 -27 26 -79c0 -27 -7 -60 -14 -86c3 -1 7 -2 10 -4c14 23 32 52 51 71c28 28 50 41 64 41c4 0 7 -1 10 -4
c11 -11 0 -37 -37 -74c-19 -19 -48 -38 -71 -52c2 -3 3 -6 4 -9c26 7 59 14 86 14zM270 72c7 -7 14 -14 20 -19c9 -31 7 -50 -4 -54c-2 -1 -3 -1 -5 -1c-10 0 -22 11 -34 33c1 10 2 20 2 32s-1 25 -3 38c8 -11 16 -21 24 -29zM146 312c-7 7 -14 13 -20 18c-9 31 -7 51 4 55
c2 1 3 1 5 1c10 0 22 -11 34 -33c-1 -10 -2 -20 -2 -32s1 -25 3 -38c-8 11 -16 21 -24 29zM88 129c-7 -7 -14 -14 -19 -20c-13 -4 -24 -5 -32 -5c-12 0 -19 4 -22 10c-4 10 6 24 32 38c10 -1 20 -1 32 -1s25 1 38 3c-11 -8 -21 -17 -29 -25zM328 254c7 7 14 14 19 20
c13 4 24 6 32 6c12 0 19 -4 22 -10c4 -10 -6 -25 -32 -39c-10 1 -20 2 -32 2s-25 -2 -38 -4c11 8 21 17 29 25zM146 72c8 8 16 18 24 29c-2 -13 -3 -26 -3 -38c0 -10 0 -20 1 -28c-14 -24 -26 -36 -36 -36c-2 0 -3 0 -5 1c-10 4 -13 22 -5 50c8 6 16 14 24 22zM270 312
c-8 -8 -16 -19 -24 -30c2 13 3 27 3 39c0 10 0 19 -1 27c14 24 26 36 36 36c2 0 3 1 5 0c10 -4 13 -23 5 -51c-8 -6 -16 -13 -24 -21zM52 232c-28 16 -41 30 -36 41c3 6 11 10 22 10c8 0 17 -2 28 -5c6 -8 14 -16 22 -24s18 -17 29 -25c-13 2 -26 4 -38 4
c-10 0 -19 0 -27 -1zM364 152c28 -16 41 -31 36 -42c-3 -6 -11 -9 -22 -9c-8 0 -17 2 -28 5c-6 8 -14 15 -22 23s-18 17 -29 25c13 -2 26 -3 38 -3c10 0 19 0 27 1z" />
    <glyph glyph-name="ion-ios-folder-open" unicode="&#xf180;" horiz-adv-x="448" 
d="M416 329v-41h-384v73c0 13 11 23 25 23h96c8 0 12 -2 17 -7v0l23 -23c2 -2 3 -2 6 -2h194c13 0 23 -10 23 -23zM32 260h384h8c15 0 25 -10 24 -30c-1 -21 -24 -205 -24 -205c-2 -17 -10 -25 -23 -25h-352c-13 0 -22 7 -25 25c0 0 -22 192 -24 211s11 24 24 24h8z" />
    <glyph glyph-name="ion-ios-folder" unicode="&#xf435;" horiz-adv-x="448" 
d="M448 329v-42c0 -2 -2 -1 -3 0s-5 1 -7 1h-428c-2 0 -6 0 -7 -1s-3 -2 -3 0v74c0 13 11 23 25 23h96c8 0 12 -2 17 -7v0l23 -23c2 -2 3 -2 6 -2h258c13 0 23 -10 23 -23zM0 32v212c0 9 7 16 16 16h416c9 0 16 -7 16 -16v-212c0 -18 -14 -32 -32 -32h-384
c-17 0 -32 14 -32 32z" />
    <glyph glyph-name="ion-ios-football" unicode="&#xf437;" 
d="M208 400c115 0 208 -93 208 -208s-93 -208 -208 -208s-208 93 -208 208s93 208 208 208zM335 319c-20 20 -43 35 -69 44c-1 0 -3 0 -4 -1l-38 -26c-1 -1 -2 -2 -2 -3v-63c0 -1 1 -2 2 -3l56 -48c1 -1 3 -2 4 -1l58 27c1 0 2 1 2 2l14 41c0 1 1 3 0 4c-6 10 -15 19 -23 27
zM261 22l17 43v3l-23 42c-1 1 -1 2 -3 2h-88c-1 0 -2 -1 -3 -2l-23 -42v-3l17 -43c0 -1 1 -3 2 -3c16 -5 33 -7 51 -7c17 0 35 2 51 7c1 0 2 2 2 3zM194 333c0 1 -1 3 -2 3l-38 26c-1 1 -3 0 -4 0c-26 -9 -49 -23 -69 -43c-8 -8 -17 -17 -23 -27c-1 -1 0 -3 0 -4l14 -41
c0 -1 1 -2 2 -2l58 -27c1 -1 3 0 4 1l57 47c1 1 1 3 1 4v63zM30 184c-1 -1 -2 -2 -2 -3c2 -35 15 -68 35 -96c1 -1 2 -1 3 -1l46 -1c2 0 3 1 4 2l23 44v3l-14 57c0 1 -2 3 -3 3l-52 24c-1 1 -3 0 -4 -1zM300 85c1 -1 2 -2 4 -2l46 1c1 0 2 0 3 1c20 28 33 61 35 96
c0 1 -1 2 -2 3l-36 31c-1 1 -3 2 -4 1l-52 -24c-1 0 -3 -2 -3 -3l-14 -57v-3z" />
    <glyph glyph-name="ion-ios-funnel" unicode="&#xf182;" 
d="M0 361c0 13 9 23 21 23h374c12 0 21 -10 21 -23v0c0 -6 -2 -12 -6 -16l-152 -180c-4 -4 -5 -9 -5 -15v-134c0 -11 -10 -19 -20 -15l-55 20c-9 3 -15 12 -15 22v107c0 6 -1 11 -5 15l-152 180c-4 4 -6 10 -6 16v0z" />
    <glyph glyph-name="ion-ios-gift" unicode="&#xf191;" 
d="M384 312c18 0 32 -14 32 -32v-20c0 -2 -2 -4 -4 -4h-408c-2 0 -4 2 -4 4v20c0 18 14 32 32 32h84c-12 11 -20 27 -20 44c0 33 28 60 63 60c21 0 38 -9 49 -27c11 18 28 27 49 27c35 0 63 -27 63 -60c0 -17 -8 -33 -20 -44h84zM257 388c-19 0 -34 -16 -34 -64h34
s34 14 34 32s-15 32 -34 32zM159 388c-19 0 -34 -14 -34 -32s15 -32 34 -32h34c0 48 -15 64 -34 64zM16 222c0 4 4 8 8 8h170v-262h-146c-18 0 -32 14 -32 32v222zM392 230c4 0 8 -4 8 -8v-222c0 -18 -14 -32 -32 -32h-146v262h170z" />
    <glyph glyph-name="ion-ios-git-branch" unicode="&#xf183;" horiz-adv-x="332" 
d="M262 352c39 0 70 -31 70 -70c0 -34 -24 -63 -56 -69c-1 -28 -14 -46 -38 -64c-25 -19 -56 -25 -78 -29c-27 -5 -42 -14 -51 -24c19 -13 31 -35 31 -58c0 -39 -31 -70 -70 -70s-70 31 -70 70c0 17 6 33 17 46c10 11 24 19 38 22v172c-15 3 -28 11 -38 22
c-11 13 -17 29 -17 46c0 39 31 70 70 70s70 -31 70 -70c0 -17 -6 -34 -18 -47c-10 -11 -24 -19 -39 -22v-169c10 13 32 33 73 40c19 3 45 7 65 23c17 13 26 24 27 43c-32 7 -56 35 -56 68c0 39 31 70 70 70zM28 346c0 -23 19 -42 42 -42s42 19 42 42s-19 42 -42 42
s-42 -19 -42 -42zM112 38c0 23 -19 42 -42 42s-42 -19 -42 -42s19 -42 42 -42s42 19 42 42zM262 240c23 0 42 19 42 42s-19 42 -42 42s-42 -19 -42 -42s19 -42 42 -42z" />
    <glyph glyph-name="ion-ios-git-commit" unicode="&#xf184;" horiz-adv-x="448" 
d="M434 206c8 0 14 -6 14 -14s-6 -14 -14 -14h-77c-3 -32 -17 -62 -41 -84c-25 -24 -58 -36 -92 -36s-67 12 -92 36c-24 22 -38 52 -41 84h-77c-8 0 -14 6 -14 14s6 14 14 14h77c3 32 17 62 41 84c25 24 58 36 92 36s67 -12 92 -36c24 -22 38 -52 41 -84h77zM299 117
c20 20 31 47 31 75s-11 55 -31 75s-47 31 -75 31s-55 -11 -75 -31s-31 -47 -31 -75s11 -55 31 -75s47 -31 75 -31s55 11 75 31z" />
    <glyph glyph-name="ion-ios-git-compare" unicode="&#xf185;" horiz-adv-x="448" 
d="M202 120l59 -59c4 -4 7 -10 7 -16s-3 -11 -7 -15l-57 -58c-3 -3 -6 -4 -10 -4s-7 2 -10 4v0c-5 6 -5 15 0 20l40 40h-90c-34 0 -58 16 -70 45c-9 23 -9 50 -9 65v136c-15 3 -28 11 -38 22c-11 13 -17 29 -17 46c0 39 31 70 70 70s70 -31 70 -70c0 -17 -6 -34 -18 -47
c-10 -11 -24 -19 -39 -22v-135c0 -17 1 -42 9 -59c8 -16 22 -23 42 -23h89l-41 40v0c-3 3 -4 6 -4 10s1 7 4 10s6 4 10 4s7 -1 10 -4zM70 304c23 0 42 19 42 42s-19 42 -42 42s-42 -19 -42 -42s19 -42 42 -42zM393 106c14 -3 28 -11 38 -22c11 -13 17 -29 17 -46
c0 -39 -31 -70 -70 -70s-70 31 -70 70c0 17 6 34 18 47c10 11 24 19 39 22v135c0 17 -1 41 -9 58c-8 16 -22 24 -42 24h-89l41 -40v0c3 -3 4 -6 4 -10s-1 -7 -4 -10s-6 -4 -10 -4s-7 1 -10 4l-59 59c-4 4 -7 10 -7 16s3 11 7 15l57 58c3 3 6 4 10 4s7 -2 10 -4v0
c5 -6 5 -15 0 -20l-40 -40h90c34 0 58 -16 70 -45c9 -23 9 -50 9 -65v-136zM378 -4c23 0 42 19 42 42s-19 42 -42 42s-42 -19 -42 -42s19 -42 42 -42z" />
    <glyph glyph-name="ion-ios-git-merge" unicode="&#xf186;" horiz-adv-x="384" 
d="M314 230c39 0 70 -31 70 -70s-31 -70 -70 -70c-33 0 -61 24 -68 56c-12 0 -25 3 -50 13c-31 12 -72 32 -113 89v-141c15 -3 29 -11 39 -22c12 -13 18 -30 18 -47c0 -39 -31 -70 -70 -70s-70 31 -70 70c0 17 6 33 17 46c10 11 24 19 38 22v172c-15 3 -28 11 -38 22
c-11 13 -17 29 -17 46c0 39 31 70 70 70s70 -31 70 -70c0 -30 -18 -56 -45 -66c40 -63 81 -83 111 -95c21 -8 29 -11 39 -11c6 32 35 56 69 56zM112 38c0 23 -19 42 -42 42s-42 -19 -42 -42s19 -42 42 -42s42 19 42 42zM70 304c23 0 42 19 42 42s-19 42 -42 42
s-42 -19 -42 -42s19 -42 42 -42zM314 118c23 0 42 19 42 42s-19 42 -42 42s-42 -19 -42 -42s19 -42 42 -42z" />
    <glyph glyph-name="ion-ios-git-network" unicode="&#xf187;" horiz-adv-x="384" 
d="M313 416c39 0 71 -32 71 -71c0 -34 -24 -62 -56 -69v-57c0 -3 -2 -6 -4 -7l-117 -60v-44c15 -3 28 -11 38 -23c11 -13 18 -29 18 -46c0 -39 -32 -71 -71 -71s-71 32 -71 71c0 34 24 62 56 69v44l-117 60c-2 1 -4 4 -4 7v57c-15 3 -28 11 -38 23c-11 13 -18 29 -18 46
c0 39 32 71 71 71s70 -32 70 -71c0 -34 -23 -62 -55 -69v-43l106 -55l106 55v43c-15 3 -28 11 -38 23c-11 13 -17 29 -17 46c0 39 31 71 70 71zM30 345c0 -22 19 -41 41 -41s40 19 40 41s-18 41 -40 41s-41 -19 -41 -41zM233 39c0 22 -19 41 -41 41s-41 -19 -41 -41
s19 -41 41 -41s41 19 41 41zM313 304c22 0 41 19 41 41s-19 41 -41 41s-40 -19 -40 -41s18 -41 40 -41z" />
    <glyph glyph-name="ion-ios-git-pull-request" unicode="&#xf188;" horiz-adv-x="384" 
d="M329 106c14 -3 28 -11 38 -22c11 -13 17 -29 17 -46c0 -39 -31 -70 -70 -70s-70 31 -70 70c0 17 6 34 18 47c10 11 24 19 39 22v135c0 17 -1 41 -9 58c-8 16 -22 24 -42 24h-77l41 -40v0c3 -3 4 -6 4 -10s-1 -7 -4 -10s-6 -4 -10 -4s-7 1 -10 4l-56 56
c-3 -11 -8 -21 -16 -29c-10 -11 -24 -19 -39 -22v-162c15 -3 29 -11 39 -22c12 -13 18 -30 18 -47c0 -39 -31 -70 -70 -70s-70 31 -70 70c0 17 6 33 17 46c10 11 24 19 38 22v164c-15 3 -28 11 -38 22c-11 13 -17 29 -17 46c0 39 31 70 70 70c32 0 59 -22 67 -51l55 55
c3 3 6 4 10 4s7 -2 10 -4v0c5 -6 5 -15 0 -20l-40 -40h78c34 0 58 -16 70 -45c9 -23 9 -50 9 -65v-136zM112 38c0 23 -19 42 -42 42s-42 -19 -42 -42s19 -42 42 -42s42 19 42 42zM70 296c23 0 42 19 42 42s-19 42 -42 42s-42 -19 -42 -42s19 -42 42 -42zM314 -4
c23 0 42 19 42 42s-19 42 -42 42s-42 -19 -42 -42s19 -42 42 -42z" />
    <glyph glyph-name="ion-ios-glasses" unicode="&#xf43f;" horiz-adv-x="446" 
d="M432 207c8 0 14 -7 14 -15s-6 -15 -14 -15h-7c-3 -21 -13 -40 -28 -55c-17 -17 -40 -26 -64 -26c-51 0 -93 43 -93 96v0c0 6 -7 15 -17 15s-17 -9 -17 -15v0c0 -53 -42 -96 -93 -96c-24 0 -47 9 -64 26c-15 15 -25 34 -28 55h-7c-8 0 -14 7 -14 15s6 15 14 15h7
c3 21 13 40 28 55c17 16 40 26 64 26c20 0 40 -6 56 -19c14 -11 24 -25 30 -42c7 5 16 7 24 7s17 -2 24 -7c6 17 16 31 30 42c16 13 36 19 56 19c24 0 47 -9 64 -26c15 -15 25 -34 28 -55h7z" />
    <glyph glyph-name="ion-ios-globe" unicode="&#xf18a;" 
d="M208 400c115 0 208 -93 208 -208s-93 -208 -208 -208v0h-1c-55 0 -107 22 -146 61s-61 91 -61 147s22 108 61 147s91 61 146 61h1v0zM388 206c-3 36 -16 69 -38 97c-16 -8 -32 -15 -49 -21c6 -24 9 -49 10 -76h77zM194 206v62c-18 1 -36 3 -53 7c-5 -21 -8 -45 -9 -69h62
zM194 178h-62c1 -24 4 -48 9 -69c17 4 35 6 53 7v62zM222 178v-62c18 -1 35 -3 52 -7c5 21 8 45 9 69h-61zM222 206h61c-1 24 -4 48 -9 69c-17 -4 -34 -6 -52 -7v-62zM331 324c-19 17 -40 31 -64 39c10 -15 19 -34 26 -55c13 4 26 10 38 16zM267 301c-11 34 -28 59 -45 68
v-74c15 1 30 3 45 6zM194 369c-17 -9 -34 -34 -46 -68c15 -3 31 -5 46 -6v74zM148 363c-24 -8 -45 -22 -63 -39c12 -6 24 -12 37 -16c7 21 16 41 26 55zM66 303c-22 -28 -35 -62 -38 -97h77c1 27 4 52 10 76c-17 5 -33 13 -49 21zM28 178c3 -36 15 -69 37 -97
c16 8 33 15 50 21c-6 24 -9 49 -10 76h-77zM84 60c18 -17 40 -31 64 -39c-10 15 -19 34 -26 55c-13 -4 -26 -10 -38 -16zM148 83c12 -34 29 -59 46 -68v74c-15 -1 -31 -3 -46 -6zM222 15c17 9 34 34 45 68c-15 3 -30 5 -45 6v-74zM267 21c24 8 46 22 65 39
c-12 6 -25 12 -38 16c-7 -21 -17 -40 -27 -55zM350 81c22 28 35 61 38 97h-77c-1 -27 -4 -52 -10 -76c17 -6 33 -13 49 -21z" />
    <glyph glyph-name="ion-ios-grid" unicode="&#xf18c;" horiz-adv-x="384" 
d="M142 140c-1 0 -2 1 -2 2v100c0 1 1 2 2 2h100c1 0 2 -1 2 -2v-100c0 -1 -1 -2 -2 -2h-100zM0 352c0 18 14 32 32 32h320c18 0 32 -14 32 -32v-320c0 -18 -14 -32 -32 -32h-320c-18 0 -32 14 -32 32v320zM330 244c8 0 14 6 14 14v0c0 8 -6 14 -14 14h-56c-1 0 -2 1 -2 2
v56c0 8 -6 14 -14 14v0c-8 0 -14 -6 -14 -14v-56c0 -1 -1 -2 -2 -2h-100c-1 0 -2 1 -2 2v56c0 8 -6 14 -14 14v0c-8 0 -14 -6 -14 -14v-56c0 -1 -1 -2 -2 -2h-56c-8 0 -14 -6 -14 -14v0c0 -8 6 -14 14 -14h56c1 0 2 -1 2 -2v-100c0 -1 -1 -2 -2 -2h-56c-8 0 -14 -6 -14 -14
v0c0 -8 6 -14 14 -14h56c1 0 2 -1 2 -2v-56c0 -8 6 -14 14 -14v0c8 0 14 6 14 14v56c0 1 1 2 2 2h100c1 0 2 -1 2 -2v-56c0 -8 6 -14 14 -14v0c8 0 14 6 14 14v56c0 1 1 2 2 2h56c8 0 14 6 14 14v0c0 8 -6 14 -14 14h-56c-1 0 -2 1 -2 2v100c0 1 1 2 2 2h56z" />
    <glyph glyph-name="ion-ios-hammer" unicode="&#xf18e;" 
d="M229 201c4 -9 3 -18 -3 -25c-6 -6 -19 -18 -39 -38c-40 -40 -90 -97 -119 -132c-6 -7 -17 -8 -24 -1l-39 39c-7 7 -6 18 1 24c34 29 92 78 132 118l39 39s15 8 23 4c2 -1 5 -2 7 -4l18 -18c2 -2 3 -4 4 -6zM414 230c2 -2 2 -6 0 -8l-56 -55c-1 -1 -3 -2 -4 -2
c-2 0 -3 1 -4 2l-34 34c-2 2 -2 6 0 8l2 2c7 6 6 17 0 24c-1 1 -2 1 -3 2c-4 2 -13 5 -23 5c-4 0 -9 -1 -13 -2c-9 -2 -17 -9 -31 -23c-3 -3 -9 -3 -12 0l-19 20c-3 3 -3 8 0 11c15 17 20 28 19 45c-1 23 -15 40 -31 53c-10 8 -29 10 -45 10c-10 0 -19 0 -23 -1h-3
c-8 0 -3 9 3 14c7 7 29 15 55 15c14 0 30 -2 47 -9c47 -19 75 -46 82 -53s18 -18 24 -27s-2 -22 5 -29c3 -3 8 -5 12 -5s8 1 10 3v0c1 1 3 2 4 2c2 0 3 -1 4 -2z" />
    <glyph glyph-name="ion-ios-hand" unicode="&#xf190;" horiz-adv-x="320" 
d="M299 331c12 0 21 -10 21 -21v-233c0 -55 -32 -93 -78 -93h-58s-40 11 -40 11c-43 25 -94 96 -113 118c-20 22 -39 41 -27 53c18 17 40 7 66 -16l28 -24v219c0 11 9 20 21 20s21 -9 21 -20v-127c0 -5 4 -9 9 -9s9 4 9 9v161c0 11 9 21 21 21s21 -10 21 -21v-144
c0 -5 4 -8 9 -8s9 3 9 8v127c0 11 9 21 21 21s21 -10 21 -21v-161c0 -5 4 -9 9 -9s9 4 9 9v109c0 11 9 21 21 21z" />
    <glyph glyph-name="ion-ios-happy" unicode="&#xf192;" 
d="M208 400c115 0 208 -93 208 -208s-93 -208 -208 -208s-208 93 -208 208s93 208 208 208zM280 248c-13 0 -24 -11 -24 -24s11 -24 24 -24s24 11 24 24s-11 24 -24 24zM136 248c-13 0 -24 -11 -24 -24s11 -24 24 -24s24 11 24 24s-11 24 -24 24zM208 79c45 0 82 30 94 71
c2 5 -3 10 -8 10h-172c-5 0 -10 -5 -8 -10c12 -41 49 -71 94 -71z" />
    <glyph glyph-name="ion-ios-headset" unicode="&#xf194;" horiz-adv-x="448" 
d="M224 324c24 0 47 -10 64 -28s26 -34 26 -60c0 -8 -6 -14 -13 -14s-13 6 -13 14c0 17 -7 33 -19 44s-28 16 -45 16s-33 -5 -45 -16s-19 -27 -19 -44c0 -8 -6 -14 -13 -14s-13 6 -13 14c0 26 9 42 26 60s40 28 64 28zM425 169c15 -15 23 -34 23 -55v-12
c0 -21 -8 -40 -23 -55s-34 -23 -55 -23h-6c-4 0 -7 -1 -10 -4c-2 -2 -6 -4 -10 -4c-8 0 -14 6 -14 14v204c0 28 -11 55 -31 75s-47 31 -75 31s-55 -11 -75 -31s-31 -47 -31 -75v-204c0 -8 -6 -14 -14 -14c-4 0 -8 2 -10 4c-3 3 -6 4 -10 4h-6c-21 0 -40 8 -55 23
s-23 34 -23 55v12c0 21 8 40 23 55s34 23 55 23h8c2 0 4 2 4 4v38c0 36 14 70 39 95s59 39 95 39s70 -14 95 -40c25 -25 39 -58 39 -94v-38c0 -2 2 -4 4 -4h8c21 0 40 -8 55 -23z" />
    <glyph glyph-name="ion-ios-heart-dislike" unicode="&#xf13f;" horiz-adv-x="448" 
d="M392 21c6 -6 6 -14 0 -20c-2 -2 -5 -2 -7 -3c-5 -1 -9 -1 -13 3l-368 362c-6 6 -6 14 0 20s14 6 20 0zM32 279c0 10 1 20 4 30l270 -265c-36 -31 -66 -52 -66 -52s-101 72 -161 154c-32 43 -47 96 -47 133zM402 146c-16 -22 -33 -42 -52 -61l-282 277c20 18 47 30 76 30
v0v0h1c40 0 75 -21 95 -52c20 31 55 52 95 52h1v0v0c62 -1 112 -51 112 -113c0 -37 -14 -90 -46 -133z" />
    <glyph glyph-name="ion-ios-heart-empty" unicode="&#xf19b;" 
d="M304 392c62 -1 112 -51 112 -113c0 -37 -16 -90 -48 -133c-60 -82 -160 -154 -160 -154s-100 72 -160 154c-32 43 -48 96 -48 133c0 62 50 112 112 113v0v0h1c40 0 75 -21 95 -52c20 31 55 52 95 52h1v0v0zM346 163c29 40 42 87 42 116c0 22 -8 44 -24 60s-38 25 -60 25
v0h-1v0c-14 0 -28 -4 -41 -11c-12 -7 -22 -16 -30 -28c-5 -8 -14 -13 -24 -13s-18 5 -23 13c-8 12 -19 21 -31 28c-13 7 -27 11 -41 11v0h-1v0c-23 0 -43 -9 -59 -25s-25 -37 -25 -60c0 -29 13 -76 42 -116c43 -58 108 -112 138 -136c30 24 95 78 138 136z" />
    <glyph glyph-name="ion-ios-heart-half" unicode="&#xf19d;" 
d="M304 392c62 -1 112 -51 112 -113c0 -37 -16 -90 -48 -133c-60 -82 -160 -154 -160 -154s-100 72 -160 154c-32 43 -48 96 -48 133c0 62 50 112 112 113v0v0h1c40 0 75 -21 95 -52c20 31 55 52 95 52h1v0v0zM346 163c29 40 42 87 42 116c0 22 -8 44 -24 60s-38 25 -60 25
v0h-1v0c-14 0 -28 -4 -41 -11c-12 -7 -22 -16 -30 -28l-1 -1c-15 -22 -23 -48 -23 -75v-205c0 -7 8 -10 13 -6c33 27 88 74 125 125z" />
    <glyph glyph-name="ion-ios-heart" unicode="&#xf443;" 
d="M304 392c62 -1 112 -51 112 -113c0 -37 -16 -90 -48 -133c-60 -82 -160 -154 -160 -154s-100 72 -160 154c-32 43 -48 96 -48 133c0 62 50 112 112 113v0v0h1c40 0 75 -21 95 -52c20 31 55 52 95 52h1v0v0z" />
    <glyph glyph-name="ion-ios-help-buoy" unicode="&#xf196;" 
d="M208 400c115 0 208 -93 208 -208s-93 -208 -208 -208s-208 93 -208 208s93 208 208 208zM263 364l-6 -89c14 -8 26 -20 34 -34l89 6c-9 27 -24 51 -45 72s-45 36 -72 45zM81 319c-21 -21 -36 -45 -45 -72l89 -6c8 14 20 26 34 34l-6 89c-27 -9 -51 -24 -72 -45zM153 20
l6 89c-14 8 -26 20 -34 34l-89 -6c9 -27 24 -51 45 -72s45 -36 72 -45zM208 124c38 0 68 30 68 68s-30 68 -68 68s-68 -30 -68 -68s30 -68 68 -68zM335 65c21 21 36 46 45 73l-89 6c-8 -14 -20 -27 -34 -35l6 -89c27 9 51 24 72 45z" />
    <glyph glyph-name="ion-ios-help-circle-outline" unicode="&#xf197;" 
d="M208 372c-48 0 -93 -19 -127 -53s-53 -79 -53 -127s19 -93 53 -127s79 -53 127 -53s93 19 127 53s53 79 53 127s-19 93 -53 127s-79 53 -127 53zM208 400v0c115 0 208 -93 208 -208s-93 -208 -208 -208s-208 93 -208 208s93 208 208 208zM209 288c38 0 63 -21 63 -51
c0 -20 -10 -33 -28 -44c-17 -10 -23 -17 -23 -30v-8h-35v8c-2 21 5 33 23 44c17 10 24 17 24 29s-12 22 -27 22s-25 -10 -26 -25h-36c1 32 25 55 65 55zM182 117c0 12 10 20 22 20s21 -8 21 -20s-9 -21 -21 -21s-22 9 -22 21z" />
    <glyph glyph-name="ion-ios-help-circle" unicode="&#xf198;" 
d="M208 400c115 0 208 -93 208 -208s-93 -208 -208 -208s-208 93 -208 208s93 208 208 208zM204 96c12 0 21 9 21 21s-9 20 -21 20s-22 -8 -22 -20s10 -21 22 -21zM244 193c18 11 28 24 28 44c0 30 -25 51 -63 51c-40 0 -64 -23 -65 -55h36c1 15 11 25 26 25s27 -10 27 -22
s-7 -19 -24 -29c-18 -11 -25 -23 -23 -44v-8h35v8c0 13 6 20 23 30z" />
    <glyph glyph-name="ion-ios-help" unicode="&#xf446;" horiz-adv-x="128" 
d="M65 288c38 0 63 -21 63 -51c0 -20 -10 -33 -28 -44c-17 -10 -23 -17 -23 -30v-8h-35v8c-2 21 5 33 23 44c17 10 24 17 24 29s-12 22 -27 22s-25 -10 -26 -25h-36c1 32 25 55 65 55zM38 117c0 12 10 20 22 20s21 -8 21 -20s-9 -21 -21 -21s-22 9 -22 21z" />
    <glyph glyph-name="ion-ios-home" unicode="&#xf448;" 
d="M211 344l156 -125c1 -1 1 -2 1 -3v-230c0 -1 -1 -2 -2 -2h-108c-1 0 -2 1 -2 2v140c0 1 -1 2 -2 2h-92c-1 0 -2 -1 -2 -2v-140c0 -1 -1 -2 -2 -2h-108c-1 0 -2 1 -2 2v230c0 1 1 2 2 3l156 125c2 1 3 1 5 0zM411 244c3 -2 5 -6 5 -10s-1 -8 -4 -11s-6 -4 -10 -4
c-3 0 -7 1 -9 3l-184 147l-1 1l-1 -1l-184 -148c-2 -2 -6 -3 -9 -3c-4 0 -7 1 -10 4s-4 7 -4 11s2 8 5 10l43 35v92c0 1 1 2 2 2h60c1 0 2 -1 2 -2v-42l82 67c4 3 9 5 14 5s10 -2 14 -5z" />
    <glyph glyph-name="ion-ios-hourglass" unicode="&#xf103;" horiz-adv-x="348" 
d="M334 14c8 0 14 -5 14 -13s-6 -15 -14 -15h-320c-8 0 -14 7 -14 15s6 13 14 13h6c6 0 11 1 12 7v1c14 136 100 138 100 170s-85 34 -100 170v1c-1 6 -6 7 -12 7h-6c-8 0 -14 7 -14 15s6 13 14 13h320c8 0 14 -7 14 -15s-6 -13 -14 -13h-5c-6 0 -12 -1 -13 -7v-1
c-14 -136 -100 -138 -100 -170s85 -34 100 -170v-1c1 -6 7 -7 13 -7h5zM81 48c-3 -7 -1 -16 7 -16h172c8 0 10 9 7 16c-31 79 -80 71 -80 102v55c0 19 37 33 60 65c4 5 0 12 -6 12h-133c-6 0 -11 -7 -7 -12c23 -32 60 -46 60 -65v-55c0 -32 -51 -22 -80 -102z" />
    <glyph glyph-name="ion-ios-ice-cream" unicode="&#xf19a;" horiz-adv-x="288" 
d="M109 42c0 2 1 3 3 2l12 -7c2 -2 2 -5 0 -7l-7 -4c-1 -1 -3 0 -3 1zM175 27c0 -1 -2 -2 -3 -1l-7 4c-2 2 -2 5 0 7l12 7c2 1 4 0 3 -2zM77 206c2 1 3 1 5 0c10 -9 22 -16 36 -19c4 -1 5 -5 2 -7l-37 -23l-7 -4c-1 -1 -3 0 -3 1l-4 12l-9 29c0 1 0 2 1 2c6 2 12 5 16 9z
M81 137c1 1 3 1 4 0l39 -24c2 -2 2 -5 0 -7l-28 -16c-1 -1 -3 0 -3 1l-14 45zM146 99l42 -26v0c1 -1 1 -2 0 -3v0l-42 -26c-1 -1 -3 -1 -4 0l-41 26h-1c-1 1 -1 2 0 3v1l42 25c1 1 3 1 4 0zM185 151c2 -2 2 -4 0 -6l-39 -24c-1 -1 -3 -1 -4 0l-38 24c-2 2 -2 4 0 6l38 24
c1 1 3 1 4 0zM206 206c2 1 4 1 6 0c4 -4 11 -7 18 -9l-10 -31l-4 -12c0 -1 -2 -2 -3 -1l-7 4l-37 23c-3 2 -3 6 1 7c14 3 26 10 36 19zM121 6c-1 2 -1 3 1 4l20 13c1 1 3 1 4 0l20 -13c2 -1 3 -2 2 -4l-2 -5s-7 -19 -22 -19c-14 0 -22 19 -22 19zM165 106c-3 2 -3 5 0 7
l39 24c1 1 3 1 4 0h1c1 0 1 -2 1 -3l-15 -44c0 -1 -2 -2 -3 -1zM264 280c3 3 7 3 10 0c8 -7 14 -18 14 -30c0 -22 -18 -40 -40 -40c-11 0 -29 4 -37 12c-2 1 -3 1 -5 0c-15 -13 -36 -20 -62 -20s-47 7 -62 20c-2 1 -3 1 -5 0c-9 -8 -26 -12 -37 -12c-22 0 -40 18 -40 40
c0 13 7 25 17 32c2 1 4 1 5 0c7 -7 15 -11 20 -13c2 -1 3 1 2 3l-4 6c-6 9 -8 19 -6 29c9 54 54 95 110 95s102 -41 111 -94c2 -10 -1 -21 -7 -30l-4 -6c-1 -2 0 -4 2 -3c5 2 12 6 18 11z" />
    <glyph glyph-name="ion-ios-image" unicode="&#xf19c;" 
d="M65 136c-4 0 -8 4 -5 8l95 154c2 3 7 3 9 0l96 -154c3 -4 -1 -8 -5 -8h-190zM259 194c-1 2 -1 4 0 6l26 32c2 3 7 3 9 0l62 -88c3 -4 -1 -8 -5 -8h-53c-2 0 -3 0 -4 2zM303 280c-18 -2 -33 13 -31 31c1 13 12 24 25 25c18 2 33 -13 31 -31c-1 -13 -12 -24 -25 -25z
M384 400c18 0 32 -14 32 -32v-352c0 -18 -14 -32 -32 -32h-352c-18 0 -32 14 -32 32v352c0 18 14 32 32 32h352zM381 120v0v237c0 4 -4 8 -8 8h-330c-4 0 -8 -4 -8 -8v-237c0 -4 4 -8 8 -8h330c4 0 8 4 8 8z" />
    <glyph glyph-name="ion-ios-images" unicode="&#xf19e;" horiz-adv-x="448" 
d="M230 249l70 -136c2 -3 -1 -7 -5 -7l-161 14c-4 0 -5 4 -3 7l92 123c2 2 5 2 7 -1zM335 184l46 -78c2 -3 -1 -8 -5 -8l-45 4c-2 0 -2 2 -3 3l-26 49c-1 2 0 4 1 6l25 25c2 2 5 2 7 -1zM346 224c-15 0 -27 13 -24 28c2 11 12 19 23 19c15 0 27 -13 24 -28
c-2 -11 -12 -19 -23 -19zM423 319c15 -1 26 -15 25 -30l-26 -296c-1 -15 -14 -26 -29 -25l-298 26c-15 1 -25 14 -24 29l1 17l-16 -1c-15 -1 -28 9 -29 24l-27 297c-1 15 10 28 25 29l297 27c15 1 28 -10 29 -25l6 -67zM56 147l26 3l15 170c1 15 14 26 29 25l202 -18l-5 53
c0 4 -3 6 -7 6l-280 -25c-4 0 -6 -4 -6 -8l18 -200c0 -4 4 -6 8 -6zM418 283c0 4 -2 7 -6 7l-52 5l-30 2l-198 17c-4 0 -7 -2 -7 -6l-14 -156l-3 -44c0 -4 2 -7 6 -7l260 -23l19 -1c4 0 7 2 7 6z" />
    <glyph glyph-name="ion-ios-infinite" unicode="&#xf44a;" horiz-adv-x="464" 
d="M433 266c20 -20 31 -46 31 -74s-12 -54 -32 -74s-47 -30 -75 -30s-55 10 -75 30l-125 123c-14 13 -32 20 -51 20s-36 -7 -50 -20c-13 -13 -21 -31 -21 -49s8 -36 21 -49c14 -13 31 -20 50 -20s37 7 51 20l31 30c2 2 3 2 5 0l20 -19c2 -2 2 -4 0 -6l-31 -30
c-20 -20 -48 -30 -76 -30s-55 10 -75 30s-31 46 -31 74s11 54 31 74s47 30 75 30s56 -10 76 -30l125 -123c14 -13 32 -20 51 -20s36 7 50 20c13 13 20 31 20 49s-7 36 -20 49c-14 13 -31 20 -50 20s-37 -7 -51 -20l-31 -30c-2 -2 -3 -2 -5 0l-20 19c-2 2 -2 4 0 6l31 30
c20 20 48 30 76 30s55 -10 75 -30z" />
    <glyph glyph-name="ion-ios-information-circle-outline" unicode="&#xf19f;" 
d="M187 276c0 11 10 20 21 20s21 -9 21 -20s-10 -20 -21 -20s-21 9 -21 20zM189 240h38v-144h-38v144zM208 372c-48 0 -93 -19 -127 -53s-53 -79 -53 -127s19 -93 53 -127s79 -53 127 -53s93 19 127 53s53 79 53 127s-19 93 -53 127s-79 53 -127 53zM208 400v0
c115 0 208 -93 208 -208s-93 -208 -208 -208s-208 93 -208 208s93 208 208 208z" />
    <glyph glyph-name="ion-ios-information-circle" unicode="&#xf1a0;" 
d="M208 400c115 0 208 -93 208 -208s-93 -208 -208 -208s-208 93 -208 208s93 208 208 208zM227 96v144h-38v-144h38zM208 256c11 0 21 9 21 20s-10 20 -21 20s-21 -9 -21 -20s10 -20 21 -20z" />
    <glyph glyph-name="ion-ios-information" unicode="&#xf44d;" horiz-adv-x="41" 
d="M0 272c0 11 9 20 20 20s21 -9 21 -20s-10 -20 -21 -20s-20 9 -20 20zM1 236h39v-144h-39v144z" />
    <glyph glyph-name="ion-ios-jet" unicode="&#xf1a5;" 
d="M416 400c0 0 -1 -19 -27 -53c-12 -15 -121 -162 -121 -162l8 -160l-36 -41l-52 102l-10 -8l-4 -82l-33 -6l-48 60l-53 -26l26 53l-60 48l6 33l82 4l8 10l-102 52l41 36l160 -8s146 109 162 121c33 26 53 27 53 27z" />
    <glyph glyph-name="ion-ios-journal" unicode="&#xf189;" horiz-adv-x="384" 
d="M28 416h228v-384h-208c-9 0 -17 -8 -16 -18c1 -8 8 -14 16 -14h320c9 0 16 -7 16 -16v0c0 -9 -7 -16 -16 -16h-340c-16 0 -28 12 -28 28v392c0 16 12 28 28 28zM368 32h-64v384h52c16 0 28 -12 28 -28v-340c0 -9 -7 -16 -16 -16z" />
    <glyph glyph-name="ion-ios-key" unicode="&#xf1a7;" 
d="M297 230c66 0 119 -54 119 -122s-53 -124 -119 -124s-119 56 -119 124c0 18 2 32 9 48c-3 5 -9 11 -10 17c-1 5 7 25 6 30s-8 10 -11 11c-9 2 -25 -11 -31 -10s-21 14 -22 24s15 24 5 34s-21 -3 -30 -3c-7 0 -11 4 -16 9c-6 6 -9 11 -9 19s4 18 3 24s-2 9 -10 12
s-27 -7 -36 3c-6 6 -10 9 -25 24c-5 5 21 33 28 40c5 4 13 10 21 10c5 0 10 -2 15 -7c10 -11 143 -124 194 -167c12 4 25 4 38 4zM320 48c18 0 32 14 32 32s-14 32 -32 32s-32 -14 -32 -32s14 -32 32 -32z" />
    <glyph glyph-name="ion-ios-keypad" unicode="&#xf450;" horiz-adv-x="384" 
d="M331 107c30 0 53 -24 53 -54s-23 -53 -53 -53s-54 23 -54 53s24 54 54 54zM192 107c30 0 53 -24 53 -54s-23 -53 -53 -53s-53 23 -53 53s23 54 53 54zM53 107c30 0 54 -24 54 -54s-24 -53 -54 -53s-53 23 -53 53s23 54 53 54zM331 245c30 0 53 -23 53 -53
s-23 -53 -53 -53s-54 23 -54 53s24 53 54 53zM192 245c30 0 53 -23 53 -53s-23 -53 -53 -53s-53 23 -53 53s23 53 53 53zM53 245c30 0 54 -23 54 -53s-24 -53 -54 -53s-53 23 -53 53s23 53 53 53zM331 384c30 0 53 -23 53 -53s-23 -54 -53 -54s-54 24 -54 54s24 53 54 53z
M192 384c30 0 53 -23 53 -53s-23 -54 -53 -54s-53 24 -53 54s23 53 53 53zM53 384c30 0 54 -23 54 -53s-24 -54 -54 -54s-53 24 -53 54s23 53 53 53z" />
    <glyph glyph-name="ion-ios-laptop" unicode="&#xf1a8;" horiz-adv-x="480" 
d="M432 80h48v0c0 -10 -10 -19 -20 -23s-28 -9 -48 -9h-344c-20 0 -38 5 -49 10c-9 4 -19 12 -19 22v0h48v239c0 10 8 17 17 17h350c9 0 17 -8 17 -17v-239zM240 328c-2 0 -4 -2 -4 -4s2 -4 4 -4s4 2 4 4s-2 4 -4 4zM66 312c-1 0 -2 -1 -2 -2v-212c0 -1 1 -2 2 -2h348
c1 0 2 1 2 2v212c0 1 -1 2 -2 2h-348zM282 72c7 0 10 6 10 8h-104c0 -2 5 -8 10 -8h84z" />
    <glyph glyph-name="ion-ios-leaf" unicode="&#xf1aa;" 
d="M406 69c17 -3 10 -39 -5 -37c0 0 -20 1 -62 14c0 0 -15 -23 -38 -34c-25 -12 -117 -33 -195 38c-106 97 -118 354 -98 333c85 -90 194 -47 266 -106c54 -44 92 -122 76 -196c0 0 4 -4 56 -12zM314 62c5 5 10 16 10 24c-84 28 -151 72 -194 108c-4 3 -9 -2 -5 -6
c44 -45 111 -103 189 -126z" />
    <glyph glyph-name="ion-ios-link" unicode="&#xf22a;" 
d="M232 107c15 1 23 -17 13 -27l-66 -65c-20 -20 -46 -31 -74 -31s-54 11 -74 31s-31 46 -31 74s10 55 30 75l69 68c8 8 18 15 28 20c6 3 12 5 19 7c1 0 3 1 4 1c5 1 11 3 16 3h7c4 0 7 -1 11 -1h6c22 -4 42 -14 58 -30c12 -12 20 -25 24 -41c2 -8 -2 -17 -10 -19v0h-1
c-8 -2 -16 2 -19 10c-4 10 -9 19 -17 27c-12 12 -29 20 -47 21h-4h-11c-5 -1 -10 -2 -15 -4s-9 -4 -14 -7c-4 -3 -8 -6 -12 -10l-68 -68c-14 -14 -22 -32 -22 -52s8 -37 22 -51s31 -22 51 -22s38 8 52 22l64 64c3 2 6 5 10 5h1zM385 369c20 -20 31 -46 31 -74
s-10 -55 -30 -75l-69 -68c-8 -8 -18 -15 -28 -20c-6 -3 -12 -5 -19 -7c-6 -2 -14 -3 -20 -3c-3 0 -4 -1 -7 -1c-4 0 -7 1 -11 1c-24 2 -47 13 -64 30v0v0c-12 12 -20 24 -24 38c-3 9 3 18 12 20c8 2 16 -2 19 -10c4 -10 9 -18 16 -25c12 -12 29 -20 47 -21h4h11
c5 1 10 2 15 4s9 5 14 8c4 3 8 5 12 9l68 68c14 14 22 32 22 52s-8 37 -22 51s-31 22 -51 22s-37 -8 -51 -22l-64 -63c-3 -3 -8 -5 -13 -5c-14 1 -20 18 -10 28l64 63c20 20 46 31 74 31s54 -11 74 -31z" />
    </font>
</defs>
</svg>
